Who's Online | Akira Emoto | Read More..

Скачать через торрент [MULT] Алиса в стране чудес Alice in Wonderland бесплатно русская версия torrent активатор

Статистика раздачи
Размер:  1.13 GB   |    Зарегистрирован:  22 дня   |    .torrent скачан:  17 раз   |   
Раздают:  1  
   
загрузка...
 
Автор Сообщение

Galfimbul

avatar Galfimbul


Алиса в Стране Чудес / Alice in Wonderland

Год выпуска: 1951
Страна: США
Жанр: мультфильм, мюзикл, фэнтези, приключения, семейный
Продолжительность: 01:15:16
Перевод №1: русский Профессиональный (полное дублирование) "Blu-ray EUR"
Перевод №2: русский Профессиональный (двухголосый, закадровый) "П.Гланц и Татьяна Казакова"
Перевод №3: русский Авторский (одноголосый, закадровый) "А.Михалев (Ранний перевод)"
Перевод №4: русский Авторский (одноголосый, закадровый) "А.Михалев (Поздний перевод)"
Оригинальная дорожка: Есть (Английская)
Субтитры: русские (форсированные, полные), английские (полные)
Режиссеры: Клайд Джероними / Clyde Geronimi, Уилфред Джексон / Wilfred Jackson, Хэмильтон Ласки / Hamilton Luske
Роли озвучивали: Катрин Бомонт / Kathryn Beaumont, Эд Винн / Ed Wynn, Ричард Хейдн / Richard Haydn, Стерлинг Холлоуэй / Sterling Holloway, Джерри Колонна / Jerry Colonna, Верна Фелтон / Verna Felton и другие .
Роли дублировали: Лина Иванова, Антон Дёров, Александр Бобровский, Александр Воеводин, Сергей Кузнецов, Ольга Мугрычёва и другие .
Описание: Убежав из дома, Алиса увидела под старой яблоней большого белого кролика, одетого в куртку и жилет. Достав из кармана часы, кролик торопливо скрылся в подозрительно темной норе. Набравшись смелости, Алиса шагнула вслед за ним...и попала в чудесный сказочный мир, где сбываются самые несбыточные фантазии.

Чтобы попасть обратно домой, Алисе придется совершить путешествие через весь этот странный и причудливый мир, в котором ее поджидают совершенно невероятные приключения и совершенно фантастические существа...
Релиз группы

Качество: BDRip / рип с Blu-ray disc 1080p EUR
Формат: MP4
Видео кодек: H.264
Аудио кодек: AAC
Видео: 708x536 AR:1.32 1500 kbps 23.976 fps
Аудио №1: [Russian] 2ch 48 kHz 128 kbps - [Dub] Профессиональный (полное дублирование) "Blu-ray EUR"
Аудио №2: [Russian] 2ch 48 kHz 128 kbps - [DVO] Профессиональный (двухголосый, закадровый) "П.Гланц и Татьяна Казакова"
Аудио №3: [Russian] 2ch 48 kHz 128 kbps - [VO] Авторский (одноголосый, закадровый) "А.Михалев (Ранний перевод)"
Аудио №4: [Russian] 2ch 48 kHz 128 kbps - [VO] Авторский (одноголосый, закадровый) "А.Михалев (Поздний перевод)"
Аудио №5: [English] 2ch 48 kHz 128 kbps - [Original] "(Английский)"
avs [info]: 708x536p 1:1 @ 24000/1001 fps (cfr)
x264 [info]: using SAR=1/1
x264 [info]: using cpu capabilities: MMX2 SSE2Fast SSSE3 SSE4.2 AVX FMA3 BMI2 AVX2
x264 [info]: profile High, level 4.1

x264 [info]: frame I:1073 Avg QP:15.56 size: 60741
x264 [info]: frame P:31074 Avg QP:20.21 size: 13539
x264 [info]: frame B:76133 Avg QP:21.41 size: 4744
x264 [info]: consecutive B-frames: 3.9% 5.4% 23.1% 42.7% 18.5% 5.0% 1.4%
x264 [info]: mb I I16..4: 4.9% 52.5% 42.6%
x264 [info]: mb P I16..4: 1.0% 2.4% 3.5% P16..4: 25.3% 23.8% 11.0% 0.0% 0.0% skip:33.0%
x264 [info]: mb B I16..4: 0.1% 0.2% 0.5% B16..8: 21.7% 10.0% 3.8% direct: 1.6% skip:62.0% L0:46.3% L1:46.3% BI: 7.3%
x264 [info]: 8x8 transform intra:38.1% inter:33.3%
x264 [info]: direct mvs spatial:96.4% temporal:3.6%
x264 [info]: coded y,uvDC,uvAC intra: 66.3% 77.1% 62.2% inter: 9.9% 15.1% 9.5%
x264 [info]: i16 v,h,dc,p: 21% 21% 8% 49%
x264 [info]: i8 v,h,dc,ddl,ddr,vr,hd,vl,hu: 8% 9% 17% 10% 12% 10% 11% 10% 14%
x264 [info]: i4 v,h,dc,ddl,ddr,vr,hd,vl,hu: 11% 12% 13% 11% 12% 9% 10% 9% 13%
x264 [info]: i8c dc,h,v,p: 44% 29% 18% 9%
x264 [info]: Weighted P-Frames: Y:4.1% UV:2.9%
x264 [info]: ref P L0: 50.2% 7.1% 16.5% 6.9% 5.1% 4.2% 3.6% 2.1% 2.0% 2.1% 0.2% 0.0%
x264 [info]: ref B L0: 71.1% 12.1% 6.6% 3.0% 2.3% 1.9% 1.6% 0.9% 0.5%
x264 [info]: ref B L1: 94.9% 5.1%
x264 [info]: kb/s:1500.49

encoded 108280 frames, 19.50 fps, 1500.49 kb/s
ОбщееПолное имя : D:\Torrents\Alice in Wonderland.1951.BDRip.x264.960x.rip by Frost O.S.mp4Формат : MPEG-4Профиль формата : Base MediaИдентификатор кодека : isom (isom)Размер файла : 1,13 ГбайтПродолжительность : 1 ч. 15 м.Режим общего битрейта : ПеременныйОбщий поток : 2152 Кбит/секДата кодирования : UTC 2018-06-01 07:52:57Дата пометки : UTC 2018-06-01 07:52:57Программа кодирования : My MP4Box GUI 0.6.0.6

ВидеоИдентификатор : 1Формат : AVCФормат/Информация : Advanced Video CodecПрофиль формата : [email protected]Настройки формата : CABAC / 10 Ref FramesПараметр CABAC формата : ДаПараметр RefFrames формата : 10 кадровИдентификатор кодека : avc1Идентификатор кодека/Информация : Advanced Video CodingПродолжительность : 1 ч. 15 м.Битрейт : 1500 Кбит/секМаксимальный битрейт : 6827 Кбит/секШирина : 708 пикселейВысота : 536 пикселейСоотношение сторон : 4:3Режим частоты кадров : ПостоянныйЧастота кадров : 23,976 (24000/1001) кадра/секЦветовое пространство : YUVСубдискретизация насыщенности : 4:2:0Битовая глубина : 8 битТип развёртки : ПрогрессивнаяБит/(Пиксели*Кадры) : 0.165Размер потока : 808 Мбайт (70%)Заголовок : Alice in Wonderland.1951.BDRip.x264.960x.rip by Frost O.SБиблиотека кодирования : x264 core 152 r2851 ba24899Настройки программы : cabac=1 / ref=10 / deblock=1:-2:-1 / analyse=0x3:0x113 / me=umh / subme=11 / psy=1 / psy_rd=0.90:0.00 / mixed_ref=1 / me_range=32 / chroma_me=1 / trellis=2 / 8x8dct=1 / cqm=0 / deadzone=21,11 / fast_pskip=0 / chroma_qp_offset=-2 / threads=6 / lookahead_threads=1 / sliced_threads=0 / nr=0 / decimate=0 / interlaced=0 / bluray_compat=0 / constrained_intra=0 / bframes=6 / b_pyramid=2 / b_adapt=2 / b_bias=0 / direct=3 / weightb=1 / open_gop=0 / weightp=2 / keyint=250 / keyint_min=23 / scenecut=40 / intra_refresh=0 / rc=2pass / mbtree=0 / bitrate=1500 / ratetol=1.0 / qcomp=0.70 / qpmin=0 / qpmax=69 / qpstep=4 / cplxblur=20.0 / qblur=0.5 / ip_ratio=1.40 / pb_ratio=1.30 / aq=2:0.90Дата кодирования : UTC 2018-05-31 08:05:52Дата пометки : UTC 2018-06-01 07:53:08Цветовой диапазон : LimitedОсновные цвета : BT.709Характеристики трансфера : BT.709Коэффициенты матрицы : BT.709

Аудио #1Идентификатор : 2Формат : AACФормат/Информация : Advanced Audio CodecПрофиль формата : LCИдентификатор кодека : mp4a-40-2Продолжительность : 1 ч. 15 м.Вид битрейта : ПеременныйБитрейт : 128 Кбит/секМаксимальный битрейт : 136 Кбит/секКаналы : 2 каналаРасположение каналов : Front: L RЧастота : 48,0 КГцЧастота кадров : 46,875 кадров/сек (1024 SPF)Метод сжатия : С потерямиРазмер потока : 68,9 Мбайт (6%)Заголовок : Russian / Dub, Blu-ray EURДата кодирования : UTC 2018-06-01 07:53:04Дата пометки : UTC 2018-06-01 07:53:08

Аудио #2Идентификатор : 3Формат : AACФормат/Информация : Advanced Audio CodecПрофиль формата : LCИдентификатор кодека : mp4a-40-2Продолжительность : 1 ч. 15 м.Вид битрейта : ПеременныйБитрейт : 128 Кбит/секМаксимальный битрейт : 138 Кбит/секКаналы : 2 каналаРасположение каналов : Front: L RЧастота : 48,0 КГцЧастота кадров : 46,875 кадров/сек (1024 SPF)Метод сжатия : С потерямиРазмер потока : 68,8 Мбайт (6%)Заголовок : Russian / DVO, Glanc i KazakovaДата кодирования : UTC 2018-06-01 07:53:05Дата пометки : UTC 2018-06-01 07:53:08

Аудио #3Идентификатор : 4Формат : AACФормат/Информация : Advanced Audio CodecПрофиль формата : LCИдентификатор кодека : mp4a-40-2Продолжительность : 1 ч. 15 м.Вид битрейта : ПеременныйБитрейт : 128 Кбит/секМаксимальный битрейт : 136 Кбит/секКаналы : 2 каналаРасположение каналов : Front: L RЧастота : 48,0 КГцЧастота кадров : 46,875 кадров/сек (1024 SPF)Метод сжатия : С потерямиРазмер потока : 68,9 Мбайт (6%)Заголовок : Russian / VO, Mikhalev (ranniy perevod)Дата кодирования : UTC 2018-06-01 07:53:05Дата пометки : UTC 2018-06-01 07:53:08

Аудио #4Идентификатор : 5Формат : AACФормат/Информация : Advanced Audio CodecПрофиль формата : LCИдентификатор кодека : mp4a-40-2Продолжительность : 1 ч. 15 м.Вид битрейта : ПеременныйБитрейт : 128 Кбит/секМаксимальный битрейт : 136 Кбит/секКаналы : 2 каналаРасположение каналов : Front: L RЧастота : 48,0 КГцЧастота кадров : 46,875 кадров/сек (1024 SPF)Метод сжатия : С потерямиРазмер потока : 68,9 Мбайт (6%)Заголовок : Russian / VO, Mikhalev (pozdniy perevod)Дата кодирования : UTC 2018-06-01 07:53:06Дата пометки : UTC 2018-06-01 07:53:08

Аудио #5Идентификатор : 6Формат : AACФормат/Информация : Advanced Audio CodecПрофиль формата : LCИдентификатор кодека : mp4a-40-2Продолжительность : 1 ч. 15 м.Вид битрейта : ПеременныйБитрейт : 128 Кбит/секМаксимальный битрейт : 135 Кбит/секКаналы : 2 каналаРасположение каналов : Front: L RЧастота : 48,0 КГцЧастота кадров : 46,875 кадров/сек (1024 SPF)Метод сжатия : С потерямиРазмер потока : 68,9 Мбайт (6%)Заголовок : English / OriginalДата кодирования : UTC 2018-06-01 07:53:07Дата пометки : UTC 2018-06-01 07:53:08

Текст #1Идентификатор : 7Формат : Timed TextИдентификатор кодека : tx3gПродолжительность : 1 ч. 14 м.Вид битрейта : ПеременныйБитрейт : 0 бит/секРазмер потока : 195 байт (0%)Заголовок : Russian / ForcedForced : НетДата кодирования : UTC 2018-06-01 07:53:08Дата пометки : UTC 2018-06-01 07:53:08

Текст #2Идентификатор : 8Формат : Timed TextИдентификатор кодека : tx3gПродолжительность : 1 ч. 15 м.Вид битрейта : ПеременныйБитрейт : 102 бит/секРазмер потока : 56,0 Кбайт (0%)Заголовок : Russian / FullForced : НетДата кодирования : UTC 2018-06-01 07:53:08Дата пометки : UTC 2018-06-01 07:53:08

Текст #3Идентификатор : 9Формат : Timed TextИдентификатор кодека : tx3gПродолжительность : 1 ч. 15 м.Вид битрейта : ПеременныйБитрейт : 72 бит/секРазмер потока : 39,4 Кбайт (0%)Заголовок : English / FullForced : НетДата кодирования : UTC 2018-06-01 07:53:08Дата пометки : UTC 2018-06-01 07:53:08


Трекер:  [ 02-Июн-2018 16:06 ]

  

Скачать .torrent

Размер .torrent файла 11 KB


Размер: 1.13 GB
Хэш (hash) релиза: 445877782d7441e553c9d45b2e80d177eed76645

Торренты, похожие на [MULT] Алиса в стране чудес Alice in Wonderland скачать торрент

Форум Название Автор Размер S L Добавлен
Видео (Фильмы/Клипы) ·· [MULT] Алиса в стране чудес / Alice in Wonderland (Клайд Джероними / Clyde Geronimi, Уилфред Джексон / Wilfred Jackson, Хэмильтон Ласки / Hamilton Luske) [1951, мультфильм, мюзикл, фэнтези, приключения, семейный, BDRip] [3GP, 320x] Dub Blu-ray EUR Galfimbul 271383947259 MB 0 0 1527944879

16:07

2-Июн-18

Видео (Фильмы/Клипы) ·· [MULT] Алиса в стране чудес / Alice in Wonderland (Клайд Джероними / Clyde Geronimi, Уилфред Джексон / Wilfred Jackson, Хэмильтон Ласки / Hamilton Luske) [1951, мультфильм, мюзикл, фэнтези, приключения, семейный, BDRip] [MP4, 1280x] Galfimbul 16155040321.5 GB 0 0 1527944819

16:06

2-Июн-18

Видео (Фильмы/Клипы) ·· [MULT] Алиса в стране чудес / Alice in Wonderland (Клайд Джероними / Clyde Geronimi, Уилфред Джексон / Wilfred Jackson, Хэмильтон Ласки / Hamilton Luske) [1951, мультфильм, мюзикл, фэнтези, приключения, семейный, BDRip] [MP4, 480x] Dub Blu-ray EUR Galfimbul 322330500307 MB 0 0 1527944802

16:06

2-Июн-18

Видео (Фильмы/Клипы) ·· [MULT] Алиса в Стране Чудес / Alice in Wonderland (Тошиюки Хирума / Toshiyuki Hiruma, Такаши / Takashi) [1995, семейный, мультфильм, сказка, DVDRip] [MP4, 640x] Dub Варус Видео, MVO Galfimbul 466028770444 MB 0 0 1526328375

23:06

14-Май-18

Видео (Фильмы/Клипы) ·· [MULT] Алиса в стране чудес / Alice in Wonderland (Клайд Джероними, Уилфред Джексон) [1951, мультфильм, BDRip] [3GP, 320x] Galfimbul 242478092231 MB 0 0 1417543465

21:04

2-Дек-14

Еще никто не оставлял запись к записи скачать торрент [MULT] Алиса в стране чудес Alice in Wonderland . Будь первым!

!Обратная связь