Splash Splash Love | 1x47 Dragon Ball Super | The Walking Dead S08 1080p BluRay x264-ROVERS AMC Season 8 Eight

Скачать через торрент [MULT] Алиса в стране чудес Alice in Wonderland бесплатно русская версия torrent активатор

Статистика раздачи
Размер:  307 MB   |    Зарегистрирован:  2 месяца 17 дней   |    .torrent скачан:  18 раз   |   
Раздают:  1  
   
загрузка...
 
Автор Сообщение

Galfimbul

avatar Galfimbul


Алиса в Стране Чудес / Alice in Wonderland

Год выпуска: 1951
Страна: США
Жанр: мультфильм, мюзикл, фэнтези, приключения, семейный
Продолжительность: 01:15:16
Перевод: русский Профессиональный (полное дублирование) "Blu-ray EUR"
Субтитры: нет
Режиссеры: Клайд Джероними / Clyde Geronimi, Уилфред Джексон / Wilfred Jackson, Хэмильтон Ласки / Hamilton Luske
Роли озвучивали: Катрин Бомонт / Kathryn Beaumont, Эд Винн / Ed Wynn, Ричард Хейдн / Richard Haydn, Стерлинг Холлоуэй / Sterling Holloway, Джерри Колонна / Jerry Colonna, Верна Фелтон / Verna Felton и другие .
Роли дублировали: Лина Иванова, Антон Дёров, Александр Бобровский, Александр Воеводин, Сергей Кузнецов, Ольга Мугрычёва и другие .
Описание: Убежав из дома, Алиса увидела под старой яблоней большого белого кролика, одетого в куртку и жилет. Достав из кармана часы, кролик торопливо скрылся в подозрительно темной норе. Набравшись смелости, Алиса шагнула вслед за ним...и попала в чудесный сказочный мир, где сбываются самые несбыточные фантазии.

Чтобы попасть обратно домой, Алисе придется совершить путешествие через весь этот странный и причудливый мир, в котором ее поджидают совершенно невероятные приключения и совершенно фантастические существа...
Релиз группы

Качество: BDRip / рип с Blu-ray disc 1080p EUR
Формат: MP4
Видео кодек: XviD
Аудио кодек: AAC
Видео: 424x320 AR:1.32 439 kbps 23.976 fps
Аудио: [Russian] 2ch 48 kHz 128 kbps - [Dub] Профессиональный (полное дублирование) "Blu-ray EUR"
ОбщееПолное имя : D:\Torrents\Alice in Wonderland.1951.BDRip.XviD.480x.rip by Frost O.S.mp4Формат : MPEG-4Профиль формата : Base MediaИдентификатор кодека : isom (isom)Размер файла : 307 МбайтПродолжительность : 1 ч. 15 м.Режим общего битрейта : ПеременныйОбщий поток : 571 Кбит/секДата кодирования : UTC 2018-06-01 07:58:58Дата пометки : UTC 2018-06-01 07:58:58Программа кодирования : My MP4Box GUI 0.6.0.6

ВидеоИдентификатор : 1Формат : MPEG-4 VisualПрофиль формата : Advanced [email protected]Настройки формата : BVOP / Custom MatrixПараметр BVOP формата : ДаПараметр QPel формата : НетПараметр GMC формата : Без точки переходаПараметр матрицы формата : ВыборочнаяИдентификатор кодека : mp4v-20Продолжительность : 1 ч. 15 м.Вид битрейта : ПеременныйБитрейт : 439 Кбит/секМаксимальный битрейт : 2173 Кбит/секШирина : 424 пикселяВысота : 320 пикселейСоотношение сторон : 4:3Режим частоты кадров : ПостоянныйЧастота кадров : 23,976 (24000/1001) кадра/секЦветовое пространство : YUVСубдискретизация насыщенности : 4:2:0Битовая глубина : 8 битТип развёртки : ПрогрессивнаяМетод сжатия : С потерямиБит/(Пиксели*Кадры) : 0.135Размер потока : 236 Мбайт (77%)Заголовок : Alice in Wonderland.1951.BDRip.XviD.480x.rip by Frost O.SБиблиотека кодирования : XviD 1.2.1 (UTC 2008-12-04)Дата кодирования : UTC 2018-06-01 07:58:58Дата пометки : UTC 2018-06-01 07:59:01

АудиоИдентификатор : 2Формат : AACФормат/Информация : Advanced Audio CodecПрофиль формата : LCИдентификатор кодека : mp4a-40-2Продолжительность : 1 ч. 15 м.Вид битрейта : ПеременныйБитрейт : 128 Кбит/секМаксимальный битрейт : 136 Кбит/секКаналы : 2 каналаРасположение каналов : Front: L RЧастота : 48,0 КГцЧастота кадров : 46,875 кадров/сек (1024 SPF)Метод сжатия : С потерямиРазмер потока : 68,9 Мбайт (22%)Заголовок : Russian / Dub, Blu-ray EURДата кодирования : UTC 2018-06-01 07:59:00Дата пометки : UTC 2018-06-01 07:59:01


Трекер:  [ 02-Июн-2018 16:06 ]

  

Скачать .torrent

Размер .torrent файла 12 KB


Размер: 307 MB
Хэш (hash) релиза: f4044670c6e4e21b3d3e2ffebf79f651e3ea9b17

Торренты, похожие на [MULT] Алиса в стране чудес Alice in Wonderland скачать торрент

Форум Название Автор Размер S L Добавлен
Видео (Фильмы/Клипы) ·· [MULT] Алиса в стране чудес / Alice in Wonderland (Клайд Джероними / Clyde Geronimi, Уилфред Джексон / Wilfred Jackson, Хэмильтон Ласки / Hamilton Luske) [1951, мультфильм, мюзикл, фэнтези, приключения, семейный, BDRip] [3GP, 320x] Dub Blu-ray EUR Galfimbul 271383947259 MB 0 0 1527944879

16:07

2-Июн-18

Видео (Фильмы/Клипы) ·· [MULT] Алиса в стране чудес / Alice in Wonderland (Клайд Джероними / Clyde Geronimi, Уилфред Джексон / Wilfred Jackson, Хэмильтон Ласки / Hamilton Luske) [1951, мультфильм, мюзикл, фэнтези, приключения, семейный, BDRip] [MP4, 1280x] Galfimbul 16155040321.5 GB 0 0 1527944819

16:06

2-Июн-18

Видео (Фильмы/Клипы) ·· [MULT] Алиса в стране чудес / Alice in Wonderland (Клайд Джероними / Clyde Geronimi, Уилфред Джексон / Wilfred Jackson, Хэмильтон Ласки / Hamilton Luske) [1951, мультфильм, мюзикл, фэнтези, приключения, семейный, BDRip] [MP4, 960x] Galfimbul 12146148511.13 GB 0 0 1527944810

16:06

2-Июн-18

Видео (Фильмы/Клипы) ·· [MULT] Алиса в Стране Чудес / Alice in Wonderland (Тошиюки Хирума / Toshiyuki Hiruma, Такаши / Takashi) [1995, семейный, мультфильм, сказка, DVDRip] [MP4, 640x] Dub Варус Видео, MVO Galfimbul 466028770444 MB 0 0 1526328375

23:06

14-Май-18

Видео (Фильмы/Клипы) ·· [MULT] Алиса в стране чудес / Alice in Wonderland (Клайд Джероними, Уилфред Джексон) [1951, мультфильм, BDRip] [3GP, 320x] Galfimbul 242478092231 MB 0 0 1417543465

21:04

2-Дек-14

Еще никто не оставлял запись к записи скачать торрент [MULT] Алиса в стране чудес Alice in Wonderland . Будь первым!

!Обратная связь