Contact & Abuse | Register | Calendar

Скачать через торрент [VIDEO] Опасно для жизни! бесплатно русская версия torrent активатор

Статистика раздачи
Размер:  761 MB   |    Зарегистрирован:  22 дня   |    .torrent скачан:  15 раз   |   
Раздают:  1  
   
загрузка...
 
Автор Сообщение

Galfimbul

avatar Galfimbul


Опасно для жизни!

Год выпуска: 1985
Страна: СССР
Жанр: комедия
Продолжительность: 01:27:46
Перевод: не требуется
Субтитры: нет
Режиссер: Леонид Гайдай
В ролях: Леонид Куравлёв, Лариса Удовиченко, Татьяна Кравченко, Георгий Вицин, Тамаз Толорая, Нина Гребешкова, Борислав Брондуков, Владимир Носик, Михаил Кокшенов, Сергей Филиппов и другие .
Описание: Спартак Молодцов - человек предельно аккуратный, непримиримый к любому беспорядку. Обнаружив однажды оборванный провод высоковольтной линии, он, разумеется, не мог пройти мимо. Но, как известно, «ни одно доброе дело не остается безнаказанным»..
Релиз группы

Исправлена издательская ошибка аспекта . Выставлен правильный аспект .

Качество: DVDRip / рип с DVD5 (Крупный план. Без реставрации)
Формат: MP4
Видео кодек: H.264
Аудио кодек: AAC
Видео: 640x252 AR:2.54 1080 kbps 25 fps
Аудио: 2ch 48 kHz 128 kbps
avs [info]: 640x252p 1:1 @ 25/1 fps (cfr)
x264 [info]: using SAR=1/1
x264 [info]: using cpu capabilities: MMX2 SSE2Fast SSSE3 SSE4.2 AVX FMA3 BMI2 AVX2
x264 [info]: profile High, level 4.1

x264 [info]: frame I:831 Avg QP:17.43 size: 31675
x264 [info]: frame P:32374 Avg QP:20.32 size: 10498
x264 [info]: frame B:98458 Avg QP:22.46 size: 3502
x264 [info]: consecutive B-frames: 2.4% 3.6% 11.1% 37.4% 18.9% 20.2% 3.5% 2.0% 0.6% 0.2%
x264 [info]: mb I I16..4: 1.9% 71.8% 26.3%
x264 [info]: mb P I16..4: 0.7% 8.7% 1.8% P16..4: 31.4% 33.5% 18.2% 3.3% 0.5% skip: 1.9%
x264 [info]: mb B I16..4: 0.1% 1.1% 0.2% B16..8: 30.9% 22.4% 4.4% direct: 9.5% skip:31.3% L0:34.6% L1:34.7% BI:30.8%
x264 [info]: 8x8 transform intra:76.9% inter:56.7%
x264 [info]: direct mvs spatial:97.5% temporal:2.5%
x264 [info]: coded y,uvDC,uvAC intra: 88.3% 76.7% 43.2% inter: 36.9% 26.0% 7.3%
x264 [info]: i16 v,h,dc,p: 14% 10% 3% 74%
x264 [info]: i8 v,h,dc,ddl,ddr,vr,hd,vl,hu: 14% 10% 7% 8% 11% 11% 11% 12% 15%
x264 [info]: i4 v,h,dc,ddl,ddr,vr,hd,vl,hu: 17% 11% 4% 7% 13% 12% 13% 11% 13%
x264 [info]: i8c dc,h,v,p: 30% 28% 23% 18%
x264 [info]: Weighted P-Frames: Y:28.8% UV:7.2%
x264 [info]: ref P L0: 44.1% 16.8% 14.7% 6.3% 4.8% 3.7% 3.3% 2.0% 1.9% 1.9% 0.6% 0.0%
x264 [info]: ref B L0: 82.5% 8.7% 3.2% 1.7% 1.2% 1.0% 0.8% 0.5% 0.3%
x264 [info]: ref B L1: 96.9% 3.1%
x264 [info]: kb/s:1080.06

encoded 131663 frames, 28.48 fps, 1080.06 kb/s
ОбщееПолное имя : D:\Torrents\Opasno dlya zhuzni!.1985.DVDRip.x264.640x.rip by Frost O.S.mp4Формат : MPEG-4Профиль формата : Base MediaИдентификатор кодека : isom (isom)Размер файла : 761 МбайтПродолжительность : 1 ч. 27 м.Режим общего битрейта : ПеременныйОбщий поток : 1212 Кбит/секДата кодирования : UTC 2018-06-01 09:24:33Дата пометки : UTC 2018-06-01 09:24:33Программа кодирования : My MP4Box GUI 0.6.0.6

ВидеоИдентификатор : 1Формат : AVCФормат/Информация : Advanced Video CodecПрофиль формата : [email protected]Настройки формата : CABAC / 10 Ref FramesПараметр CABAC формата : ДаПараметр RefFrames формата : 10 кадровИдентификатор кодека : avc1Идентификатор кодека/Информация : Advanced Video CodingПродолжительность : 1 ч. 27 м.Битрейт : 1080 Кбит/секМаксимальный битрейт : 3200 Кбит/секШирина : 640 пикселейВысота : 252 пикселяСоотношение сторон : 2,540Режим частоты кадров : ПостоянныйЧастота кадров : 25,000 кадров/секЦветовое пространство : YUVСубдискретизация насыщенности : 4:2:0Битовая глубина : 8 битТип развёртки : ПрогрессивнаяБит/(Пиксели*Кадры) : 0.268Размер потока : 678 Мбайт (89%)Заголовок : Opasno dlya zhuzni!.1985.DVDRip.x264.640x.rip by Frost O.SБиблиотека кодирования : x264 core 152 r2851 ba24899Настройки программы : cabac=1 / ref=10 / deblock=1:-2:-2 / analyse=0x3:0x133 / me=umh / subme=11 / psy=1 / psy_rd=1.00:0.00 / mixed_ref=1 / me_range=48 / chroma_me=1 / trellis=2 / 8x8dct=1 / cqm=0 / deadzone=21,11 / fast_pskip=0 / chroma_qp_offset=-2 / threads=6 / lookahead_threads=1 / sliced_threads=0 / nr=0 / decimate=0 / interlaced=0 / bluray_compat=0 / constrained_intra=0 / bframes=9 / b_pyramid=2 / b_adapt=2 / b_bias=0 / direct=3 / weightb=1 / open_gop=0 / weightp=2 / keyint=250 / keyint_min=25 / scenecut=40 / intra_refresh=0 / rc=2pass / mbtree=0 / bitrate=1080 / ratetol=1.0 / qcomp=0.65 / qpmin=0 / qpmax=69 / qpstep=4 / cplxblur=20.0 / qblur=0.5 / ip_ratio=1.40 / pb_ratio=1.30 / aq=2:0.90Дата кодирования : UTC 2018-05-31 19:06:12Дата пометки : UTC 2018-06-01 09:24:40Цветовой диапазон : LimitedОсновные цвета : BT.601 PALХарактеристики трансфера : BT.470 System B/GКоэффициенты матрицы : BT.470 System B/G

АудиоИдентификатор : 2Формат : AACФормат/Информация : Advanced Audio CodecПрофиль формата : LCИдентификатор кодека : mp4a-40-2Продолжительность : 1 ч. 27 м.Вид битрейта : ПеременныйБитрейт : 128 Кбит/секМаксимальный битрейт : 132 Кбит/секКаналы : 2 каналаРасположение каналов : Front: L RЧастота : 48,0 КГцЧастота кадров : 46,875 кадров/сек (1024 SPF)Метод сжатия : С потерямиРазмер потока : 80,4 Мбайт (11%)Дата кодирования : UTC 2018-06-01 09:24:40Дата пометки : UTC 2018-06-01 09:24:40


Трекер:  [ 02-Июн-2018 16:06 ]

  

Скачать .torrent

Размер .torrent файла 15 KB


Размер: 761 MB
Хэш (hash) релиза: 1a80fb17650d3e775eefcf5f198b0c1172862fc9

Еще никто не оставлял запись к записи скачать торрент [VIDEO] Опасно для жизни! . Будь первым!

!Обратная связь