Watch movie | Tomb Raider [bonde annonce] | Neo-noir

Скачать через торрент Гусеницы Фильм бесплатно в хорошем качестве torrent

Скачивайте на UnionPeer.org фильмы через торрент без регистрации. Новинки кино в хорошем качестве через торрент. На UnionPeer.org можно скачать через торрент фильмы 2014 и 2015 годов. Самые новые фильмы.

Скачать торрент Гусеницы бесплатно через .torrent фильм мультфильм сериал

Статистика раздачи
Размер:  34 MB   |    Зарегистрирован:  19 дней   |    .torrent скачан:  19 раз   |   
Раздают:  1  
   
загрузка...
 
Автор Сообщение

Galfimbul

avatar Galfimbul


Гусеницы

Страна: Россия
Жанр: мультфильм
Продолжительность: 00:02:42
Год выпуска: 2009

Режиссёр: Елена Бухарина

Описание: По мотивам стихотворения Артура Гиваргизова. Как мальчик на огороде воевал с гусеницами.

Качество: WEBRip
Формат: AVI
Видео: 1544 kbps, 704х528 (5:4), 25.000 fps, MPEG-4 Visual (XviD)
Аудио: 192 kbps, 44.1 kHz, 2 channels, MPEG Audio (MP3)
Субтитры: отсутствуют
GeneralComplete name : Гусеницы. 2009.aviFormat : AVIFormat/Info : Audio Video InterleaveFile size : 34.0 MiBDuration : 2mn 42sOverall bit rate : 1 749 KbpsWriting application : MEncoder SVN-r30881(20100311-gcc4.3.3)Writing library : MPlayer

VideoID : 0Format : MPEG-4 VisualFormat profile : Advanced [email protected] settings, BVOP : 2Format settings, QPel : NoFormat settings, GMC : No warppointsFormat settings, Matrix : Default (H.263)Codec ID : XVIDCodec ID/Hint : XviDDuration : 2mn 42sBit rate : 1 544 KbpsWidth : 704 pixelsHeight : 528 pixelsDisplay aspect ratio : 5:4Original display aspect ratio : 4:3Frame rate : 25.000 fpsColor space : YUVChroma subsampling : 4:2:0Bit depth : 8 bitsScan type : ProgressiveCompression mode : LossyBits/(Pixel*Frame) : 0.166Stream size : 30.0 MiB (88%)Writing library : XviD 1.2.1 (UTC 2008-12-04)

AudioID : 1Format : MPEG AudioFormat version : Version 1Format profile : Layer 3Mode : Joint stereoMode extension : MS StereoCodec ID : 55Codec ID/Hint : MP3Duration : 2mn 42sBit rate mode : ConstantBit rate : 192 KbpsChannel(s) : 2 channelsSampling rate : 44.1 KHzCompression mode : LossyDelay relative to video : 40msStream size : 3.73 MiB (11%)Alignment : Aligned on interleavesInterleave, duration : 26 ms (0.65 video frame)Interleave, preload duration : 522 msWriting library : LAME3.98


Трекер:  [ 02-Июн-2018 15:01 ]

  

Скачать .torrent

Размер .torrent файла 11 KB


Размер: 34 MB
Хэш (hash) релиза: 0c25db81c6aeb401b53a8e7a2ba0efbd12d465d1
Подписка на обновления:

Еще никто не оставлял запись к записи скачать торрент Гусеницы . Будь первым!

!Обратная связь