Paul Dave | Watatatow saison 2 épisode 39 | American Ninja Warrior Season 10 Episode 1

Скачать через торрент Рик и Морти Rick and Morty Фильм бесплатно в хорошем качестве torrent

Скачивайте на UnionPeer.org фильмы через торрент без регистрации. Новинки кино в хорошем качестве через торрент. На UnionPeer.org можно скачать через торрент фильмы 2014 и 2015 годов. Самые новые фильмы.

Скачать торрент Рик и Морти Rick and Morty бесплатно через .torrent фильм мультфильм сериал

Статистика раздачи
Размер:  2.89 GB   |    Зарегистрирован:  23 дня   |    .torrent скачан:  31 раз   |   
Раздают:  1  
   
загрузка...
 
Автор Сообщение

Galfimbul

avatar Galfimbul


Рик и Морти / Rick and Morty

Страна: USA
Жанр: Комедия, приключения, фантастика, мультсериал
Продолжительность серии: 10 x ~ 00:22:00
Год выпуска: 2017
Перевод: Студийный (одноголосый закадровый)
Русские субтитры: есть

Режиссёр: Пит Мишелс, Джон Райс, Джастин Ройланд
Роли озвучивали: Джастин Ройланд, Спенсер Грэммер, Сара Чок, Крис Парнелл, Эрик Бауза, Дэн Хэрмон, Фил Хендри, Брэндон Джонсон, Райан Ридли, Кари Уолгрен

Описание: В центре сюжета — школьник по имени Морти и его дедушка Рик. Морти — самый обычный мальчик, который ничем не отличается от своих сверстников. А вот его дедуля занимается необычными научными исследованиями и зачастую полностью неадекватен. Он может в любое время дня и ночи схватить внука и отправиться вместе с ним в межпространственные приключения с помощью построенной из разного хлама летающей тарелки, которая способна перемещаться сквозь временной тоннель. Каждый раз эта парочка оказывается в самых неожиданных местах и самых нелепых ситуациях.

Список серий:
01. The Rickshank Rickdemption / Рикбег из Рикшенка
02. Rickmancing The Stone / Рикман с камнем
03. Pickle Rick / Маринованный Рик
04. Vindicators 3: The Return of Worldende / Поборники 3: Возвращение Губителя Миров
05. The Whirly Dirly Conspiracy / Ветреной Заговор Дёрли
06. Rest and Ricklaxation / Отдых и Риклаксация
07. Ricklantis Mixup / Риклантидическая Неразбериха
08. Morty's Mind Blowers / Мозговыносяшки Морти
09. The ABC’s of Beth / Азбука Бет
10. The Rickchurian Mortydate / Рикчжурский Мортидат

Качество: WEB-DL 1080p
Формат: MKV
Видео: HEVC, 1920x1080, 23.976 кадр/с, ~ 1454 Кбит/с
Аудио: (AAC, 6 ch, 208 Кбит/с) [Английский]
Аудио 2: (AC3, 6 ch, 384 Кбит/с) [Русский, Сыендук]
Субтитры: Оригинал - [Английский]
Ж. Спицын - [Русский]
ОбщееУникальный идентификатор : 33893955435859897868266867391888733718 (0x197FBD05DDCF9CC854EA9A977059B616)Полное имя : D:\Rick & Morty [3 Season] (HEVC 8-bit)\Rick.and.Morty.S03E01.The.Rickshank.Rickdemption.1080p.Amazon.WEB-DL.5.1.HEVC.X265.mkvФормат : MatroskaВерсия формата : Version 4 / Version 2Размер файла : 313 МбайтПродолжительность : 23 м. 22 с.Общий поток : 1873 Кбит/секДата кодирования : UTC 2018-05-20 11:58:58Программа кодирования : mkvmerge v23.0.0 ('The Bride Said No') 64-bitБиблиотека кодирования : libebml v1.3.6 + libmatroska v1.4.9Writing frontend : StaxRip v1.6.0.0

ВидеоИдентификатор : 1Формат : HEVCФормат/Информация : High Efficiency Video CodingПрофиль формата : [email protected]@MainИдентификатор кодека : V_MPEGH/ISO/HEVCПродолжительность : 23 м. 22 с.Битрейт : 1284 Кбит/секШирина : 1920 пикселейВысота : 1080 пикселейСоотношение сторон : 16:9Режим частоты кадров : ПостоянныйЧастота кадров : 23,976 (24000/1001) кадра/секЦветовое пространство : YUVСубдискретизация насыщенности : 4:2:0Битовая глубина : 8 битБит/(Пиксели*Кадры) : 0.026Размер потока : 215 Мбайт (69%)Библиотека кодирования : x265 2.5+6-d11482e5fedb:[Windows][GCC 7.1.0][64 bit] 8bit+10bit+12bitНастройки программы : cpuid=1050111 / frame-threads=2 / numa-pools=4 / wpp / no-pmode / no-pme / no-psnr / no-ssim / log-level=2 / input-csp=1 / input-res=1920x1080 / interlace=0 / total-frames=33625 / level-idc=0 / high-tier=1 / uhd-bd=0 / ref=3 / no-allow-non-conformance / no-repeat-headers / annexb / no-aud / no-hrd / info / hash=0 / no-temporal-layers / open-gop / min-keyint=23 / keyint=250 / bframes=4 / b-adapt=2 / b-pyramid / bframe-bias=0 / rc-lookahead=20 / lookahead-slices=6 / scenecut=40 / no-intra-refresh / ctu=64 / min-cu-size=8 / no-rect / no-amp / max-tu-size=32 / tu-inter-depth=1 / tu-intra-depth=1 / limit-tu=0 / rdoq-level=0 / dynamic-rd=0.00 / no-ssim-rd / signhide / no-tskip / nr-intra=0 / nr-inter=0 / no-constrained-intra / strong-intra-smoothing / max-merge=2 / limit-refs=3 / no-limit-modes / me=1 / subme=2 / merange=57 / temporal-mvp / weightp / no-weightb / no-analyze-src-pics / deblock=0:0 / sao / no-sao-non-deblock / rd=3 / no-early-skip / rskip / no-fast-intra / no-tskip-fast / no-cu-lossless / no-b-intra / rdpenalty=0 / psy-rd=2.00 / psy-rdoq=0.00 / no-rd-refine / analysis-reuse-mode=0 / no-lossless / cbqpoffs=0 / crqpoffs=0 / rc=abr / bitrate=1283 / qcomp=0.60 / qpstep=4 / stats-write=0 / stats-read=2 / cplxblur=20.0 / qblur=0.5 / ipratio=1.40 / pbratio=1.30 / aq-mode=1 / aq-strength=1.00 / cutree / zone-count=0 / no-strict-cbr / qg-size=32 / no-rc-grain / qpmax=69 / qpmin=0 / no-const-vbv / sar=0 / overscan=0 / videoformat=5 / range=0 / colorprim=2 / transfer=2 / colormatrix=2 / chromaloc=0 / display-window=0 / max-cll=0,0 / min-luma=0 / max-luma=255 / log2-max-poc-lsb=8 / vui-timing-info / vui-hrd-info / slices=1 / opt-qp-pps / opt-ref-list-length-pps / no-multi-pass-opt-rps / scenecut-bias=0.05 / no-opt-cu-delta-qp / no-aq-motion / no-hdr / no-hdr-opt / no-dhdr10-opt / analysis-reuse-level=5 / scale-factor=0 / refine-intra=0 / refine-inter=0 / refine-mv=0 / no-limit-sao / ctu-info=0Default : ДаForced : Нет

Аудио #1Идентификатор : 2Формат : AC-3Формат/Информация : Audio Coding 3Идентификатор кодека : A_AC3Продолжительность : 23 м. 22 с.Вид битрейта : ПостоянныйБитрейт : 384 Кбит/секКаналы : 6 каналовРасположение каналов : Front: L C R, Side: L R, LFEЧастота : 48,0 КГцЧастота кадров : 31,250 кадров/сек (1536 SPF)Битовая глубина : 16 битМетод сжатия : С потерямиРазмер потока : 64,2 Мбайт (21%)Заголовок : Сыендук (5.1ch)Язык : RussianServiceKind/String : Complete MainDefault : ДаForced : Нет

Аудио #2Идентификатор : 3Формат : AACФормат/Информация : Advanced Audio CodecПрофиль формата : HE-AAC / LCНастройки формата : ExplicitИдентификатор кодека : A_AAC-2Продолжительность : 23 м. 22 с.Битрейт : 203 Кбит/секКаналы : 6 каналовРасположение каналов : Front: L C R, Side: L R, LFEЧастота : 48,0 КГц / 24,0 КГцЧастота кадров : 23,438 кадра/сек (1024 SPF)Метод сжатия : С потерямиЗадержка видео : 40 мс.Размер потока : 33,9 Мбайт (11%)Заголовок : Оригинал (5.1ch)Язык : EnglishDefault : НетForced : Нет

Текст #1Идентификатор : 4Формат : UTF-8Идентификатор кодека : S_TEXT/UTF8Идентификатор кодека/Информация : UTF-8 Plain TextПродолжительность : 23 м. 6 с.Битрейт : 202 бит/секElementCount : 511Размер потока : 34,3 Кбайт (0%)Заголовок : Ж. СпицынЯзык : RussianDefault : НетForced : Нет

Текст #2Идентификатор : 5Формат : UTF-8Идентификатор кодека : S_TEXT/UTF8Идентификатор кодека/Информация : UTF-8 Plain TextПродолжительность : 23 м. 11 с.Битрейт : 125 бит/секElementCount : 604Размер потока : 21,3 Кбайт (0%)Заголовок : ОригиналЯзык : EnglishDefault : НетForced : Нет
Предыдущие и альтернативные раздачи

Трекер:  [ 02-Июн-2018 12:24 ]

  

Скачать .torrent

Размер .torrent файла 16 KB


Размер: 2.89 GB
Хэш (hash) релиза: 318319e9b5402063ef1217ad3daa8dfe4f863c61
Подписка на обновления:

Еще никто не оставлял запись к записи скачать торрент Рик и Морти Rick and Morty . Будь первым!

!Обратная связь