Dokumentenboerse | Télécharger | Kage No Chitai

Скачать через торрент Агент Фокс SpyFox Фильм бесплатно в хорошем качестве torrent

Скачивайте на UnionPeer.org фильмы через торрент без регистрации. Новинки кино в хорошем качестве через торрент. На UnionPeer.org можно скачать через торрент фильмы 2014 и 2015 годов. Самые новые фильмы.

Скачать торрент Агент Фокс SpyFox бесплатно через .torrent фильм мультфильм сериал

Статистика раздачи
Размер:  35 MB   |    Зарегистрирован:  1 месяц 20 дней   |    .torrent скачан:  32 раза   |   
Раздают:  1  
   
загрузка...
 
Автор Сообщение

Galfimbul

avatar Galfimbul


Агент Фокс / SpyFox

Страна: США
Жанр: мультфильм
Продолжительность: 00:04:31
Год выпуска: 2013
Перевод: субтитры (alex.n42)
Русские субтитры: есть

Режиссёры: Тэйлор Клаттер, Кендра Филлипс, Йов Штибельман / Taylor Clutter, Kendra Phillips, Yoav Shtibelman

Описание: Мультфильм, пародирующий фильмы о суперагентах.
Зловещий доктор Хаммер (акула-молот), прячась на консервной фабрике, вывел агрессивных сардин и сгенерировал мощный лазер, способный растопить все льды на планете и затопить её. Спасать Мир отправляется агент Фокс...

Качество: WEBRip-AVC
Формат: MP4
Видео: 953 kbps, 1280х720 (16:9), 24.000 fps, AVC ([email protected])
Аудио: 126 kbps, 44.1 kHz, 1 channel, AAC (LC)
Субтитры: softsub (SRT)
GeneralComplete name : SpyFox (2013).mp4Format : MPEG-4Format profile : Base Media / Version 2Codec ID : mp42File size : 35.0 MiBDuration : 4mn 31sOverall bit rate mode : VariableOverall bit rate : 1 082 KbpsEncoded date : UTC 2017-08-26 07:45:49Tagged date : UTC 2017-08-26 07:45:49gsst : 0gstd : 271371

VideoID : 1Format : AVCFormat/Info : Advanced Video CodecFormat profile : [email protected] settings, CABAC : YesFormat settings, ReFrames : 3 framesCodec ID : avc1Codec ID/Info : Advanced Video CodingDuration : 4mn 31sBit rate : 953 KbpsWidth : 1 280 pixelsHeight : 720 pixelsDisplay aspect ratio : 16:9Frame rate mode : ConstantFrame rate : 24.000 fpsColor space : YUVChroma subsampling : 4:2:0Bit depth : 8 bitsScan type : ProgressiveBits/(Pixel*Frame) : 0.043Stream size : 30.8 MiB (88%)Title : ISO Media file produced by Google Inc.Encoded date : UTC 2017-08-26 07:45:49Tagged date : UTC 2017-08-26 07:45:49Color primaries : BT.709Transfer characteristics : BT.709Matrix coefficients : BT.709

AudioID : 2Format : AACFormat/Info : Advanced Audio CodecFormat profile : LCCodec ID : 40Duration : 4mn 31sBit rate mode : VariableBit rate : 126 KbpsChannel(s) : 2 channelsChannel positions : Front: L RSampling rate : 44.1 KHzCompression mode : LossyStream size : 4.06 MiB (12%)Title : ISO Media file produced by Google Inc.Encoded date : UTC 2017-08-26 07:45:49Tagged date : UTC 2017-08-26 07:45:49


Трекер:  [ 02-Июн-2018 07:01 ]

  

Скачать .torrent

Размер .torrent файла 11 KB


Размер: 35 MB
Хэш (hash) релиза: 3f2350739779e7bc6dddcdbf8025b8e65372c6d3
Подписка на обновления:

Еще никто не оставлял запись к записи скачать торрент Агент Фокс SpyFox . Будь первым!

!Обратная связь