Jurassic World: Fallen ... | Dragon Ball Perfect Edition Tome 01 | AquiPelis.com - Peliculas 2015 Online Gratis!

Скачать через торрент [ANIME4PSP] Реквием из Тьмы Requiem from the Darkness Фильм бесплатно в хорошем качестве torrent

Скачивайте на UnionPeer.org фильмы через торрент без регистрации. Новинки кино в хорошем качестве через торрент. На UnionPeer.org можно скачать через торрент фильмы 2014 и 2015 годов. Самые новые фильмы.

Скачать торрент [ANIME4PSP] Реквием из Тьмы Requiem from the Darkness бесплатно через .torrent фильм мультфильм сериал

Статистика раздачи
Размер:  1.15 GB   |    Зарегистрирован:  1 месяц 15 дней   |    .torrent скачан:  33 раза   |   
Раздают:  1  
   
загрузка...
 
Автор Сообщение

Galfimbul

avatar Galfimbul


Реквием из Тьмы
Requiem from the Darkness / 京極夏彦 巷説百物語
Год выпуска: 2003
Страна: Япония
Жанр: мистерия, фэнтези, ужасы
Продолжительность: 13 серий x 22 мин
Перевод: Русский хардсаб
Режиссер: Тонокацу Хидэки / Tonokatsu Hideki / 殿勝秀樹
Автор оригинала: Кёгоку Нацухико / Kyogoku Natsuhiko / 京極夏彦
Студия:
TMS
Описание: Иногда бывает так, что случайная встреча круто меняет всю дальнейшую жизнь. Так получилось и в этой истории. Однажды, пережидая непогоду в старом, обветшавшем доме начинающий писатель Момоске становится участником сверхъестественных событий и сводит знакомство с потусторонней командой охотников за душами. Будучи заинтригованным и желающим получить необходимый материал для написания своей книги (а также испытывая влечение к загадочной девушке Окин, являющейся участницей мистического трио) герой пускается в странствие по "тёмной дороге жизни". Следуя за своими спутниками, часто рискуя жизнью и созерцая всё более жуткие грехи и пороки, герой всё отчётливее понимает, что путь, на который он вступил, может привести его прямиком в преисподнюю...


Качество: DVDRip
Формат: MP4
Видео кодек: H.264
Аудио кодек: AAC
Видео: MPEG4 Video (H264, 2 pass, Extreme) 368x272 23.97fps, 392 kbps
Аудио: AAC 44100Hz stereo, 128 kbps
01. Azuki Bean Washer
02. Willow Woman
03. Enchanted White Fox
04. Dancing Head
05. Salty Choji
06. The Shibaemon Racoon
07. Katabira Crossroads
08. The Field Gun
09. Kowai
10. Hinoenma
11. Funayuurei
12. Shinigami, or rather the Shichinin Misaki (Part 1)
13. Shinigami, or rather the Shichinin Misaki (Part 2)
Общее
Полное имя : C:\torrents\[ANIME4PSP] Requiem From The Darkness\01. Azuki Bean Washer.mp4
Формат : MPEG-4
Профиль формата : Base Media
Идентификатор кодека : isom (isom/avc1)
Размер файла : 90,7 Мбайт
Продолжительность : 24 м. 11 с.
Режим общего битрейта : Переменный
Общий поток : 524 Кбит/сек
Дата кодирования : UTC 2008-11-09 16:02:53
Дата пометки : UTC 2008-11-09 16:02:53

Видео
Идентификатор : 1
Формат : AVC
Формат/Информация : Advanced Video Codec
Профиль формата : [email protected]
Настройки формата : CABAC / 2 Ref Frames
Параметр CABAC формата : Да
Параметр RefFrames формата : 2 кадра
Идентификатор кодека : avc1
Идентификатор кодека/Информация : Advanced Video Coding
Продолжительность : 24 м. 11 с.
Битрейт : 392 Кбит/сек
Максимальный битрейт : 1760 Кбит/сек
Ширина : 368 пикселей
Высота : 272 пикселя
Соотношение сторон : 4:3
Режим частоты кадров : Постоянный
Частота кадров : 23,976 (24000/1001) кадра/сек
Цветовое пространство : YUV
Субдискретизация насыщенности : 4:2:0
Битовая глубина : 8 бит
Тип развёртки : Прогрессивная
Бит/(Пиксели*Кадры) : 0.163
Размер потока : 67,8 Мбайт (75%)
Библиотека кодирования : x264 core 58 svn-736
Настройки программы : cabac=1 / ref=2 / deblock=1:-2:-1 / analyse=0x1:0x131 / me=umh / subme=7 / brdo=1 / mixed_ref=1 / me_range=16 / chroma_me=1 / trellis=2 / 8x8dct=0 / cqm=0 / deadzone=21,11 / chroma_qp_offset=0 / threads=2 / nr=0 / decimate=0 / mbaff=0 / bframes=3 / b_pyramid=0 / b_adapt=1 / b_bias=0 / direct=3 / wpredb=1 / bime=1 / keyint=250 / keyint_min=25 / scenecut=40(pre) / rc=2pass / bitrate=392 / ratetol=1.0 / rceq='blurCplx^(1-qComp)' / qcomp=0.60 / qpmin=10 / qpmax=51 / qpstep=4 / cplxblur=20.0 / qblur=0.5 / ip_ratio=1.40 / pb_ratio=1.30
Дата кодирования : UTC 2008-11-09 16:02:53
Дата пометки : UTC 2008-11-09 16:02:56

Аудио
Идентификатор : 2
Формат : AAC
Формат/Информация : Advanced Audio Codec
Профиль формата : LC
Идентификатор кодека : mp4a-40-2
Продолжительность : 24 м. 11 с.
Вид битрейта : Переменный
Битрейт : 129 Кбит/сек
Максимальный битрейт : 180 Кбит/сек
Каналы : 2 канала
Расположение каналов : Front: L R
Частота : 48,0 КГц
Частота кадров : 46,875 кадров/сек (1024 SPF)
Метод сжатия : С потерями
Размер потока : 22,3 Мбайт (25%)
Дата кодирования : UTC 2008-11-09 16:02:56
Дата пометки : UTC 2008-11-09 16:02:56
Общее
Полное имя : C:\torrents\[ANIME4PSP] Requiem From The Darkness\02. Willow Woman.mp4
Формат : MPEG-4
Профиль формата : Base Media
Идентификатор кодека : isom (isom/avc1)
Размер файла : 90,7 Мбайт
Продолжительность : 24 м. 11 с.
Режим общего битрейта : Переменный
Общий поток : 524 Кбит/сек
Дата кодирования : UTC 2008-11-10 14:48:32
Дата пометки : UTC 2008-11-10 14:48:32

Видео
Идентификатор : 1
Формат : AVC
Формат/Информация : Advanced Video Codec
Профиль формата : [email protected]
Настройки формата : CABAC / 2 Ref Frames
Параметр CABAC формата : Да
Параметр RefFrames формата : 2 кадра
Идентификатор кодека : avc1
Идентификатор кодека/Информация : Advanced Video Coding
Продолжительность : 24 м. 11 с.
Битрейт : 392 Кбит/сек
Максимальный битрейт : 2635 Кбит/сек
Ширина : 368 пикселей
Высота : 272 пикселя
Соотношение сторон : 4:3
Режим частоты кадров : Постоянный
Частота кадров : 23,976 (24000/1001) кадра/сек
Цветовое пространство : YUV
Субдискретизация насыщенности : 4:2:0
Битовая глубина : 8 бит
Тип развёртки : Прогрессивная
Бит/(Пиксели*Кадры) : 0.163
Размер потока : 67,8 Мбайт (75%)
Библиотека кодирования : x264 core 58 svn-736
Настройки программы : cabac=1 / ref=2 / deblock=1:-2:-1 / analyse=0x1:0x131 / me=umh / subme=7 / brdo=1 / mixed_ref=1 / me_range=16 / chroma_me=1 / trellis=2 / 8x8dct=0 / cqm=0 / deadzone=21,11 / chroma_qp_offset=0 / threads=2 / nr=0 / decimate=0 / mbaff=0 / bframes=3 / b_pyramid=0 / b_adapt=1 / b_bias=0 / direct=3 / wpredb=1 / bime=1 / keyint=250 / keyint_min=25 / scenecut=40(pre) / rc=2pass / bitrate=392 / ratetol=1.0 / rceq='blurCplx^(1-qComp)' / qcomp=0.60 / qpmin=10 / qpmax=51 / qpstep=4 / cplxblur=20.0 / qblur=0.5 / ip_ratio=1.40 / pb_ratio=1.30
Дата кодирования : UTC 2008-11-10 14:48:32
Дата пометки : UTC 2008-11-10 14:48:35

Аудио
Идентификатор : 2
Формат : AAC
Формат/Информация : Advanced Audio Codec
Профиль формата : LC
Идентификатор кодека : mp4a-40-2
Продолжительность : 24 м. 11 с.
Вид битрейта : Переменный
Битрейт : 129 Кбит/сек
Максимальный битрейт : 186 Кбит/сек
Каналы : 2 канала
Расположение каналов : Front: L R
Частота : 48,0 КГц
Частота кадров : 46,875 кадров/сек (1024 SPF)
Метод сжатия : С потерями
Размер потока : 22,3 Мбайт (25%)
Дата кодирования : UTC 2008-11-10 14:48:34
Дата пометки : UTC 2008-11-10 14:48:35
Общее
Полное имя : C:\torrents\[ANIME4PSP] Requiem From The Darkness\03. Enchanted White Fox.mp4
Формат : MPEG-4
Профиль формата : Base Media
Идентификатор кодека : isom (isom/avc1)
Размер файла : 90,7 Мбайт
Продолжительность : 24 м. 11 с.
Режим общего битрейта : Переменный
Общий поток : 524 Кбит/сек
Дата кодирования : UTC 2008-11-10 15:16:28
Дата пометки : UTC 2008-11-10 15:16:28

Видео
Идентификатор : 1
Формат : AVC
Формат/Информация : Advanced Video Codec
Профиль формата : [email protected]
Настройки формата : CABAC / 2 Ref Frames
Параметр CABAC формата : Да
Параметр RefFrames формата : 2 кадра
Идентификатор кодека : avc1
Идентификатор кодека/Информация : Advanced Video Coding
Продолжительность : 24 м. 11 с.
Битрейт : 392 Кбит/сек
Максимальный битрейт : 2926 Кбит/сек
Ширина : 368 пикселей
Высота : 272 пикселя
Соотношение сторон : 4:3
Режим частоты кадров : Постоянный
Частота кадров : 23,976 (24000/1001) кадра/сек
Цветовое пространство : YUV
Субдискретизация насыщенности : 4:2:0
Битовая глубина : 8 бит
Тип развёртки : Прогрессивная
Бит/(Пиксели*Кадры) : 0.163
Размер потока : 67,8 Мбайт (75%)
Библиотека кодирования : x264 core 58 svn-736
Настройки программы : cabac=1 / ref=2 / deblock=1:-2:-1 / analyse=0x1:0x131 / me=umh / subme=7 / brdo=1 / mixed_ref=1 / me_range=16 / chroma_me=1 / trellis=2 / 8x8dct=0 / cqm=0 / deadzone=21,11 / chroma_qp_offset=0 / threads=2 / nr=0 / decimate=0 / mbaff=0 / bframes=3 / b_pyramid=0 / b_adapt=1 / b_bias=0 / direct=3 / wpredb=1 / bime=1 / keyint=250 / keyint_min=25 / scenecut=40(pre) / rc=2pass / bitrate=392 / ratetol=1.0 / rceq='blurCplx^(1-qComp)' / qcomp=0.60 / qpmin=10 / qpmax=51 / qpstep=4 / cplxblur=20.0 / qblur=0.5 / ip_ratio=1.40 / pb_ratio=1.30
Дата кодирования : UTC 2008-11-10 15:16:28
Дата пометки : UTC 2008-11-10 15:16:37

Аудио
Идентификатор : 2
Формат : AAC
Формат/Информация : Advanced Audio Codec
Профиль формата : LC
Идентификатор кодека : mp4a-40-2
Продолжительность : 24 м. 11 с.
Вид битрейта : Переменный
Битрейт : 129 Кбит/сек
Максимальный битрейт : 188 Кбит/сек
Каналы : 2 канала
Расположение каналов : Front: L R
Частота : 48,0 КГц
Частота кадров : 46,875 кадров/сек (1024 SPF)
Метод сжатия : С потерями
Размер потока : 22,3 Мбайт (25%)
Дата кодирования : UTC 2008-11-10 15:16:36
Дата пометки : UTC 2008-11-10 15:16:37
Общее
Полное имя : C:\torrents\[ANIME4PSP] Requiem From The Darkness\04. Dancing Head.mp4
Формат : MPEG-4
Профиль формата : Base Media
Идентификатор кодека : isom (isom/avc1)
Размер файла : 90,7 Мбайт
Продолжительность : 24 м. 11 с.
Режим общего битрейта : Переменный
Общий поток : 524 Кбит/сек
Дата кодирования : UTC 2008-11-11 09:36:01
Дата пометки : UTC 2008-11-11 09:36:01

Видео
Идентификатор : 1
Формат : AVC
Формат/Информация : Advanced Video Codec
Профиль формата : [email protected]
Настройки формата : CABAC / 2 Ref Frames
Параметр CABAC формата : Да
Параметр RefFrames формата : 2 кадра
Идентификатор кодека : avc1
Идентификатор кодека/Информация : Advanced Video Coding
Продолжительность : 24 м. 11 с.
Битрейт : 392 Кбит/сек
Максимальный битрейт : 2597 Кбит/сек
Ширина : 368 пикселей
Высота : 272 пикселя
Соотношение сторон : 4:3
Режим частоты кадров : Постоянный
Частота кадров : 23,976 (24000/1001) кадра/сек
Цветовое пространство : YUV
Субдискретизация насыщенности : 4:2:0
Битовая глубина : 8 бит
Тип развёртки : Прогрессивная
Бит/(Пиксели*Кадры) : 0.163
Размер потока : 67,8 Мбайт (75%)
Библиотека кодирования : x264 core 58 svn-736
Настройки программы : cabac=1 / ref=2 / deblock=1:-2:-1 / analyse=0x1:0x131 / me=umh / subme=7 / brdo=1 / mixed_ref=1 / me_range=16 / chroma_me=1 / trellis=2 / 8x8dct=0 / cqm=0 / deadzone=21,11 / chroma_qp_offset=0 / threads=2 / nr=0 / decimate=0 / mbaff=0 / bframes=3 / b_pyramid=0 / b_adapt=1 / b_bias=0 / direct=3 / wpredb=1 / bime=1 / keyint=250 / keyint_min=25 / scenecut=40(pre) / rc=2pass / bitrate=392 / ratetol=1.0 / rceq='blurCplx^(1-qComp)' / qcomp=0.60 / qpmin=10 / qpmax=51 / qpstep=4 / cplxblur=20.0 / qblur=0.5 / ip_ratio=1.40 / pb_ratio=1.30
Дата кодирования : UTC 2008-11-11 09:36:01
Дата пометки : UTC 2008-11-11 09:36:09

Аудио
Идентификатор : 2
Формат : AAC
Формат/Информация : Advanced Audio Codec
Профиль формата : LC
Идентификатор кодека : mp4a-40-2
Продолжительность : 24 м. 11 с.
Вид битрейта : Переменный
Битрейт : 129 Кбит/сек
Максимальный битрейт : 187 Кбит/сек
Каналы : 2 канала
Расположение каналов : Front: L R
Частота : 48,0 КГц
Частота кадров : 46,875 кадров/сек (1024 SPF)
Метод сжатия : С потерями
Размер потока : 22,3 Мбайт (25%)
Дата кодирования : UTC 2008-11-11 09:36:06
Дата пометки : UTC 2008-11-11 09:36:09
Общее
Полное имя : C:\torrents\[ANIME4PSP] Requiem From The Darkness\05. Salty Choji.mp4
Формат : MPEG-4
Профиль формата : Base Media
Идентификатор кодека : isom (isom/avc1)
Размер файла : 90,6 Мбайт
Продолжительность : 24 м. 10 с.
Режим общего битрейта : Переменный
Общий поток : 524 Кбит/сек
Дата кодирования : UTC 2008-11-11 10:01:25
Дата пометки : UTC 2008-11-11 10:01:25

Видео
Идентификатор : 1
Формат : AVC
Формат/Информация : Advanced Video Codec
Профиль формата : [email protected]
Настройки формата : CABAC / 2 Ref Frames
Параметр CABAC формата : Да
Параметр RefFrames формата : 2 кадра
Идентификатор кодека : avc1
Идентификатор кодека/Информация : Advanced Video Coding
Продолжительность : 24 м. 10 с.
Битрейт : 392 Кбит/сек
Максимальный битрейт : 2855 Кбит/сек
Ширина : 368 пикселей
Высота : 272 пикселя
Соотношение сторон : 4:3
Режим частоты кадров : Постоянный
Частота кадров : 23,976 (24000/1001) кадра/сек
Цветовое пространство : YUV
Субдискретизация насыщенности : 4:2:0
Битовая глубина : 8 бит
Тип развёртки : Прогрессивная
Бит/(Пиксели*Кадры) : 0.163
Размер потока : 67,8 Мбайт (75%)
Библиотека кодирования : x264 core 58 svn-736
Настройки программы : cabac=1 / ref=2 / deblock=1:-2:-1 / analyse=0x1:0x131 / me=umh / subme=7 / brdo=1 / mixed_ref=1 / me_range=16 / chroma_me=1 / trellis=2 / 8x8dct=0 / cqm=0 / deadzone=21,11 / chroma_qp_offset=0 / threads=2 / nr=0 / decimate=0 / mbaff=0 / bframes=3 / b_pyramid=0 / b_adapt=1 / b_bias=0 / direct=3 / wpredb=1 / bime=1 / keyint=250 / keyint_min=25 / scenecut=40(pre) / rc=2pass / bitrate=392 / ratetol=1.0 / rceq='blurCplx^(1-qComp)' / qcomp=0.60 / qpmin=10 / qpmax=51 / qpstep=4 / cplxblur=20.0 / qblur=0.5 / ip_ratio=1.40 / pb_ratio=1.30
Дата кодирования : UTC 2008-11-11 10:01:25
Дата пометки : UTC 2008-11-11 10:01:32

Аудио
Идентификатор : 2
Формат : AAC
Формат/Информация : Advanced Audio Codec
Профиль формата : LC
Идентификатор кодека : mp4a-40-2
Продолжительность : 24 м. 10 с.
Вид битрейта : Переменный
Битрейт : 129 Кбит/сек
Максимальный битрейт : 183 Кбит/сек
Каналы : 2 канала
Расположение каналов : Front: L R
Частота : 48,0 КГц
Частота кадров : 46,875 кадров/сек (1024 SPF)
Метод сжатия : С потерями
Размер потока : 22,3 Мбайт (25%)
Дата кодирования : UTC 2008-11-11 10:01:29
Дата пометки : UTC 2008-11-11 10:01:32
Общее
Полное имя : C:\torrents\[ANIME4PSP] Requiem From The Darkness\06. The Shibaemon Racoon.mp4
Формат : MPEG-4
Профиль формата : Base Media
Идентификатор кодека : isom (isom/avc1)
Размер файла : 90,7 Мбайт
Продолжительность : 24 м. 11 с.
Режим общего битрейта : Переменный
Общий поток : 524 Кбит/сек
Дата кодирования : UTC 2008-11-11 10:26:17
Дата пометки : UTC 2008-11-11 10:26:17

Видео
Идентификатор : 1
Формат : AVC
Формат/Информация : Advanced Video Codec
Профиль формата : [email protected]
Настройки формата : CABAC / 2 Ref Frames
Параметр CABAC формата : Да
Параметр RefFrames формата : 2 кадра
Идентификатор кодека : avc1
Идентификатор кодека/Информация : Advanced Video Coding
Продолжительность : 24 м. 11 с.
Битрейт : 392 Кбит/сек
Максимальный битрейт : 2384 Кбит/сек
Ширина : 368 пикселей
Высота : 272 пикселя
Соотношение сторон : 4:3
Режим частоты кадров : Постоянный
Частота кадров : 23,976 (24000/1001) кадра/сек
Цветовое пространство : YUV
Субдискретизация насыщенности : 4:2:0
Битовая глубина : 8 бит
Тип развёртки : Прогрессивная
Бит/(Пиксели*Кадры) : 0.163
Размер потока : 67,8 Мбайт (75%)
Библиотека кодирования : x264 core 58 svn-736
Настройки программы : cabac=1 / ref=2 / deblock=1:-2:-1 / analyse=0x1:0x131 / me=umh / subme=7 / brdo=1 / mixed_ref=1 / me_range=16 / chroma_me=1 / trellis=2 / 8x8dct=0 / cqm=0 / deadzone=21,11 / chroma_qp_offset=0 / threads=2 / nr=0 / decimate=0 / mbaff=0 / bframes=3 / b_pyramid=0 / b_adapt=1 / b_bias=0 / direct=3 / wpredb=1 / bime=1 / keyint=250 / keyint_min=25 / scenecut=40(pre) / rc=2pass / bitrate=392 / ratetol=1.0 / rceq='blurCplx^(1-qComp)' / qcomp=0.60 / qpmin=10 / qpmax=51 / qpstep=4 / cplxblur=20.0 / qblur=0.5 / ip_ratio=1.40 / pb_ratio=1.30
Дата кодирования : UTC 2008-11-11 10:26:17
Дата пометки : UTC 2008-11-11 10:26:30

Аудио
Идентификатор : 2
Формат : AAC
Формат/Информация : Advanced Audio Codec
Профиль формата : LC
Идентификатор кодека : mp4a-40-2
Продолжительность : 24 м. 11 с.
Вид битрейта : Переменный
Битрейт : 129 Кбит/сек
Максимальный битрейт : 183 Кбит/сек
Каналы : 2 канала
Расположение каналов : Front: L R
Частота : 48,0 КГц
Частота кадров : 46,875 кадров/сек (1024 SPF)
Метод сжатия : С потерями
Размер потока : 22,3 Мбайт (25%)
Дата кодирования : UTC 2008-11-11 10:26:29
Дата пометки : UTC 2008-11-11 10:26:30
Общее
Полное имя : C:\torrents\[ANIME4PSP] Requiem From The Darkness\07. Katabira Crossroads.mp4
Формат : MPEG-4
Профиль формата : Base Media
Идентификатор кодека : isom (isom/avc1)
Размер файла : 90,6 Мбайт
Продолжительность : 24 м. 11 с.
Режим общего битрейта : Переменный
Общий поток : 524 Кбит/сек
Дата кодирования : UTC 2008-11-11 10:51:23
Дата пометки : UTC 2008-11-11 10:51:23

Видео
Идентификатор : 1
Формат : AVC
Формат/Информация : Advanced Video Codec
Профиль формата : [email protected]
Настройки формата : CABAC / 2 Ref Frames
Параметр CABAC формата : Да
Параметр RefFrames формата : 2 кадра
Идентификатор кодека : avc1
Идентификатор кодека/Информация : Advanced Video Coding
Продолжительность : 24 м. 11 с.
Битрейт : 392 Кбит/сек
Максимальный битрейт : 2686 Кбит/сек
Ширина : 368 пикселей
Высота : 272 пикселя
Соотношение сторон : 4:3
Режим частоты кадров : Постоянный
Частота кадров : 23,976 (24000/1001) кадра/сек
Цветовое пространство : YUV
Субдискретизация насыщенности : 4:2:0
Битовая глубина : 8 бит
Тип развёртки : Прогрессивная
Бит/(Пиксели*Кадры) : 0.163
Размер потока : 67,8 Мбайт (75%)
Библиотека кодирования : x264 core 58 svn-736
Настройки программы : cabac=1 / ref=2 / deblock=1:-2:-1 / analyse=0x1:0x131 / me=umh / subme=7 / brdo=1 / mixed_ref=1 / me_range=16 / chroma_me=1 / trellis=2 / 8x8dct=0 / cqm=0 / deadzone=21,11 / chroma_qp_offset=0 / threads=2 / nr=0 / decimate=0 / mbaff=0 / bframes=3 / b_pyramid=0 / b_adapt=1 / b_bias=0 / direct=3 / wpredb=1 / bime=1 / keyint=250 / keyint_min=25 / scenecut=40(pre) / rc=2pass / bitrate=392 / ratetol=1.0 / rceq='blurCplx^(1-qComp)' / qcomp=0.60 / qpmin=10 / qpmax=51 / qpstep=4 / cplxblur=20.0 / qblur=0.5 / ip_ratio=1.40 / pb_ratio=1.30
Дата кодирования : UTC 2008-11-11 10:51:23
Дата пометки : UTC 2008-11-11 10:51:28

Аудио
Идентификатор : 2
Формат : AAC
Формат/Информация : Advanced Audio Codec
Профиль формата : LC
Идентификатор кодека : mp4a-40-2
Продолжительность : 24 м. 11 с.
Вид битрейта : Переменный
Битрейт : 129 Кбит/сек
Максимальный битрейт : 172 Кбит/сек
Каналы : 2 канала
Расположение каналов : Front: L R
Частота : 48,0 КГц
Частота кадров : 46,875 кадров/сек (1024 SPF)
Метод сжатия : С потерями
Размер потока : 22,3 Мбайт (25%)
Дата кодирования : UTC 2008-11-11 10:51:27
Дата пометки : UTC 2008-11-11 10:51:28
Общее
Полное имя : C:\torrents\[ANIME4PSP] Requiem From The Darkness\08. The Field Gun.mp4
Формат : MPEG-4
Профиль формата : Base Media
Идентификатор кодека : isom (isom/avc1)
Размер файла : 90,7 Мбайт
Продолжительность : 24 м. 11 с.
Режим общего битрейта : Переменный
Общий поток : 524 Кбит/сек
Дата кодирования : UTC 2008-11-11 11:16:16
Дата пометки : UTC 2008-11-11 11:16:16

Видео
Идентификатор : 1
Формат : AVC
Формат/Информация : Advanced Video Codec
Профиль формата : [email protected]
Настройки формата : CABAC / 2 Ref Frames
Параметр CABAC формата : Да
Параметр RefFrames формата : 2 кадра
Идентификатор кодека : avc1
Идентификатор кодека/Информация : Advanced Video Coding
Продолжительность : 24 м. 10 с.
Битрейт : 392 Кбит/сек
Максимальный битрейт : 2561 Кбит/сек
Ширина : 368 пикселей
Высота : 272 пикселя
Соотношение сторон : 4:3
Режим частоты кадров : Постоянный
Частота кадров : 23,976 (24000/1001) кадра/сек
Цветовое пространство : YUV
Субдискретизация насыщенности : 4:2:0
Битовая глубина : 8 бит
Тип развёртки : Прогрессивная
Бит/(Пиксели*Кадры) : 0.163
Размер потока : 67,8 Мбайт (75%)
Библиотека кодирования : x264 core 58 svn-736
Настройки программы : cabac=1 / ref=2 / deblock=1:-2:-1 / analyse=0x1:0x131 / me=umh / subme=7 / brdo=1 / mixed_ref=1 / me_range=16 / chroma_me=1 / trellis=2 / 8x8dct=0 / cqm=0 / deadzone=21,11 / chroma_qp_offset=0 / threads=2 / nr=0 / decimate=0 / mbaff=0 / bframes=3 / b_pyramid=0 / b_adapt=1 / b_bias=0 / direct=3 / wpredb=1 / bime=1 / keyint=250 / keyint_min=25 / scenecut=40(pre) / rc=2pass / bitrate=392 / ratetol=1.0 / rceq='blurCplx^(1-qComp)' / qcomp=0.60 / qpmin=10 / qpmax=51 / qpstep=4 / cplxblur=20.0 / qblur=0.5 / ip_ratio=1.40 / pb_ratio=1.30
Дата кодирования : UTC 2008-11-11 11:16:16
Дата пометки : UTC 2008-11-11 11:16:18

Аудио
Идентификатор : 2
Формат : AAC
Формат/Информация : Advanced Audio Codec
Профиль формата : LC
Идентификатор кодека : mp4a-40-2
Продолжительность : 24 м. 11 с.
Вид битрейта : Переменный
Битрейт : 129 Кбит/сек
Максимальный битрейт : 175 Кбит/сек
Каналы : 2 канала
Расположение каналов : Front: L R
Частота : 48,0 КГц
Частота кадров : 46,875 кадров/сек (1024 SPF)
Метод сжатия : С потерями
Размер потока : 22,3 Мбайт (25%)
Дата кодирования : UTC 2008-11-11 11:16:18
Дата пометки : UTC 2008-11-11 11:16:18
Общее
Полное имя : C:\torrents\[ANIME4PSP] Requiem From The Darkness\09. Kowai.mp4
Формат : MPEG-4
Профиль формата : Base Media
Идентификатор кодека : isom (isom/avc1)
Размер файла : 90,7 Мбайт
Продолжительность : 24 м. 10 с.
Режим общего битрейта : Переменный
Общий поток : 524 Кбит/сек
Дата кодирования : UTC 2008-11-11 11:41:49
Дата пометки : UTC 2008-11-11 11:41:49

Видео
Идентификатор : 1
Формат : AVC
Формат/Информация : Advanced Video Codec
Профиль формата : [email protected]
Настройки формата : CABAC / 2 Ref Frames
Параметр CABAC формата : Да
Параметр RefFrames формата : 2 кадра
Идентификатор кодека : avc1
Идентификатор кодека/Информация : Advanced Video Coding
Продолжительность : 24 м. 10 с.
Битрейт : 392 Кбит/сек
Максимальный битрейт : 2593 Кбит/сек
Ширина : 368 пикселей
Высота : 272 пикселя
Соотношение сторон : 4:3
Режим частоты кадров : Постоянный
Частота кадров : 23,976 (24000/1001) кадра/сек
Цветовое пространство : YUV
Субдискретизация насыщенности : 4:2:0
Битовая глубина : 8 бит
Тип развёртки : Прогрессивная
Бит/(Пиксели*Кадры) : 0.163
Размер потока : 67,8 Мбайт (75%)
Библиотека кодирования : x264 core 58 svn-736
Настройки программы : cabac=1 / ref=2 / deblock=1:-2:-1 / analyse=0x1:0x131 / me=umh / subme=7 / brdo=1 / mixed_ref=1 / me_range=16 / chroma_me=1 / trellis=2 / 8x8dct=0 / cqm=0 / deadzone=21,11 / chroma_qp_offset=0 / threads=2 / nr=0 / decimate=0 / mbaff=0 / bframes=3 / b_pyramid=0 / b_adapt=1 / b_bias=0 / direct=3 / wpredb=1 / bime=1 / keyint=250 / keyint_min=25 / scenecut=40(pre) / rc=2pass / bitrate=392 / ratetol=1.0 / rceq='blurCplx^(1-qComp)' / qcomp=0.60 / qpmin=10 / qpmax=51 / qpstep=4 / cplxblur=20.0 / qblur=0.5 / ip_ratio=1.40 / pb_ratio=1.30
Дата кодирования : UTC 2008-11-11 11:41:49
Дата пометки : UTC 2008-11-11 11:41:51

Аудио
Идентификатор : 2
Формат : AAC
Формат/Информация : Advanced Audio Codec
Профиль формата : LC
Идентификатор кодека : mp4a-40-2
Продолжительность : 24 м. 10 с.
Вид битрейта : Переменный
Битрейт : 129 Кбит/сек
Максимальный битрейт : 175 Кбит/сек
Каналы : 2 канала
Расположение каналов : Front: L R
Частота : 48,0 КГц
Частота кадров : 46,875 кадров/сек (1024 SPF)
Метод сжатия : С потерями
Размер потока : 22,3 Мбайт (25%)
Дата кодирования : UTC 2008-11-11 11:41:51
Дата пометки : UTC 2008-11-11 11:41:51
Общее
Полное имя : C:\torrents\[ANIME4PSP] Requiem From The Darkness\10. Hinoenma.mp4
Формат : MPEG-4
Профиль формата : Base Media
Идентификатор кодека : isom (isom/avc1)
Размер файла : 90,7 Мбайт
Продолжительность : 24 м. 11 с.
Режим общего битрейта : Переменный
Общий поток : 524 Кбит/сек
Дата кодирования : UTC 2008-11-11 12:08:49
Дата пометки : UTC 2008-11-11 12:08:49

Видео
Идентификатор : 1
Формат : AVC
Формат/Информация : Advanced Video Codec
Профиль формата : [email protected]
Настройки формата : CABAC / 2 Ref Frames
Параметр CABAC формата : Да
Параметр RefFrames формата : 2 кадра
Идентификатор кодека : avc1
Идентификатор кодека/Информация : Advanced Video Coding
Продолжительность : 24 м. 11 с.
Битрейт : 392 Кбит/сек
Максимальный битрейт : 2184 Кбит/сек
Ширина : 368 пикселей
Высота : 272 пикселя
Соотношение сторон : 4:3
Режим частоты кадров : Постоянный
Частота кадров : 23,976 (24000/1001) кадра/сек
Цветовое пространство : YUV
Субдискретизация насыщенности : 4:2:0
Битовая глубина : 8 бит
Тип развёртки : Прогрессивная
Бит/(Пиксели*Кадры) : 0.163
Размер потока : 67,9 Мбайт (75%)
Библиотека кодирования : x264 core 58 svn-736
Настройки программы : cabac=1 / ref=2 / deblock=1:-2:-1 / analyse=0x1:0x131 / me=umh / subme=7 / brdo=1 / mixed_ref=1 / me_range=16 / chroma_me=1 / trellis=2 / 8x8dct=0 / cqm=0 / deadzone=21,11 / chroma_qp_offset=0 / threads=2 / nr=0 / decimate=0 / mbaff=0 / bframes=3 / b_pyramid=0 / b_adapt=1 / b_bias=0 / direct=3 / wpredb=1 / bime=1 / keyint=250 / keyint_min=25 / scenecut=40(pre) / rc=2pass / bitrate=392 / ratetol=1.0 / rceq='blurCplx^(1-qComp)' / qcomp=0.60 / qpmin=10 / qpmax=51 / qpstep=4 / cplxblur=20.0 / qblur=0.5 / ip_ratio=1.40 / pb_ratio=1.30
Дата кодирования : UTC 2008-11-11 12:08:49
Дата пометки : UTC 2008-11-11 12:08:52

Аудио
Идентификатор : 2
Формат : AAC
Формат/Информация : Advanced Audio Codec
Профиль формата : LC
Идентификатор кодека : mp4a-40-2
Продолжительность : 24 м. 11 с.
Вид битрейта : Переменный
Битрейт : 129 Кбит/сек
Максимальный битрейт : 173 Кбит/сек
Каналы : 2 канала
Расположение каналов : Front: L R
Частота : 48,0 КГц
Частота кадров : 46,875 кадров/сек (1024 SPF)
Метод сжатия : С потерями
Размер потока : 22,3 Мбайт (25%)
Дата кодирования : UTC 2008-11-11 12:08:51
Дата пометки : UTC 2008-11-11 12:08:52
Общее
Полное имя : C:\torrents\[ANIME4PSP] Requiem From The Darkness\11. Funayuurei.mp4
Формат : MPEG-4
Профиль формата : Base Media
Идентификатор кодека : isom (isom/avc1)
Размер файла : 90,7 Мбайт
Продолжительность : 24 м. 11 с.
Режим общего битрейта : Переменный
Общий поток : 524 Кбит/сек
Дата кодирования : UTC 2008-11-11 12:34:20
Дата пометки : UTC 2008-11-11 12:34:20

Видео
Идентификатор : 1
Формат : AVC
Формат/Информация : Advanced Video Codec
Профиль формата : [email protected]
Настройки формата : CABAC / 2 Ref Frames
Параметр CABAC формата : Да
Параметр RefFrames формата : 2 кадра
Идентификатор кодека : avc1
Идентификатор кодека/Информация : Advanced Video Coding
Продолжительность : 24 м. 11 с.
Битрейт : 392 Кбит/сек
Максимальный битрейт : 1946 Кбит/сек
Ширина : 368 пикселей
Высота : 272 пикселя
Соотношение сторон : 4:3
Режим частоты кадров : Постоянный
Частота кадров : 23,976 (24000/1001) кадра/сек
Цветовое пространство : YUV
Субдискретизация насыщенности : 4:2:0
Битовая глубина : 8 бит
Тип развёртки : Прогрессивная
Бит/(Пиксели*Кадры) : 0.163
Размер потока : 67,8 Мбайт (75%)
Библиотека кодирования : x264 core 58 svn-736
Настройки программы : cabac=1 / ref=2 / deblock=1:-2:-1 / analyse=0x1:0x131 / me=umh / subme=7 / brdo=1 / mixed_ref=1 / me_range=16 / chroma_me=1 / trellis=2 / 8x8dct=0 / cqm=0 / deadzone=21,11 / chroma_qp_offset=0 / threads=2 / nr=0 / decimate=0 / mbaff=0 / bframes=3 / b_pyramid=0 / b_adapt=1 / b_bias=0 / direct=3 / wpredb=1 / bime=1 / keyint=250 / keyint_min=25 / scenecut=40(pre) / rc=2pass / bitrate=392 / ratetol=1.0 / rceq='blurCplx^(1-qComp)' / qcomp=0.60 / qpmin=10 / qpmax=51 / qpstep=4 / cplxblur=20.0 / qblur=0.5 / ip_ratio=1.40 / pb_ratio=1.30
Дата кодирования : UTC 2008-11-11 12:34:20
Дата пометки : UTC 2008-11-11 12:34:22

Аудио
Идентификатор : 2
Формат : AAC
Формат/Информация : Advanced Audio Codec
Профиль формата : LC
Идентификатор кодека : mp4a-40-2
Продолжительность : 24 м. 11 с.
Вид битрейта : Переменный
Битрейт : 129 Кбит/сек
Максимальный битрейт : 181 Кбит/сек
Каналы : 2 канала
Расположение каналов : Front: L R
Частота : 48,0 КГц
Частота кадров : 46,875 кадров/сек (1024 SPF)
Метод сжатия : С потерями
Размер потока : 22,3 Мбайт (25%)
Дата кодирования : UTC 2008-11-11 12:34:22
Дата пометки : UTC 2008-11-11 12:34:22
Общее
Полное имя : C:\torrents\[ANIME4PSP] Requiem From The Darkness\12. Shinigami, or rather the Shichinin Misaki (Part 1).mp4
Формат : MPEG-4
Профиль формата : Base Media
Идентификатор кодека : isom (isom/avc1)
Размер файла : 90,7 Мбайт
Продолжительность : 24 м. 11 с.
Режим общего битрейта : Переменный
Общий поток : 524 Кбит/сек
Дата кодирования : UTC 2008-11-11 13:00:31
Дата пометки : UTC 2008-11-11 13:00:31

Видео
Идентификатор : 1
Формат : AVC
Формат/Информация : Advanced Video Codec
Профиль формата : [email protected]
Настройки формата : CABAC / 2 Ref Frames
Параметр CABAC формата : Да
Параметр RefFrames формата : 2 кадра
Идентификатор кодека : avc1
Идентификатор кодека/Информация : Advanced Video Coding
Продолжительность : 24 м. 11 с.
Битрейт : 392 Кбит/сек
Максимальный битрейт : 2298 Кбит/сек
Ширина : 368 пикселей
Высота : 272 пикселя
Соотношение сторон : 4:3
Режим частоты кадров : Постоянный
Частота кадров : 23,976 (24000/1001) кадра/сек
Цветовое пространство : YUV
Субдискретизация насыщенности : 4:2:0
Битовая глубина : 8 бит
Тип развёртки : Прогрессивная
Бит/(Пиксели*Кадры) : 0.163
Размер потока : 67,8 Мбайт (75%)
Библиотека кодирования : x264 core 58 svn-736
Настройки программы : cabac=1 / ref=2 / deblock=1:-2:-1 / analyse=0x1:0x131 / me=umh / subme=7 / brdo=1 / mixed_ref=1 / me_range=16 / chroma_me=1 / trellis=2 / 8x8dct=0 / cqm=0 / deadzone=21,11 / chroma_qp_offset=0 / threads=2 / nr=0 / decimate=0 / mbaff=0 / bframes=3 / b_pyramid=0 / b_adapt=1 / b_bias=0 / direct=3 / wpredb=1 / bime=1 / keyint=250 / keyint_min=25 / scenecut=40(pre) / rc=2pass / bitrate=392 / ratetol=1.0 / rceq='blurCplx^(1-qComp)' / qcomp=0.60 / qpmin=10 / qpmax=51 / qpstep=4 / cplxblur=20.0 / qblur=0.5 / ip_ratio=1.40 / pb_ratio=1.30
Дата кодирования : UTC 2008-11-11 13:00:31
Дата пометки : UTC 2008-11-11 13:00:41

Аудио
Идентификатор : 2
Формат : AAC
Формат/Информация : Advanced Audio Codec
Профиль формата : LC
Идентификатор кодека : mp4a-40-2
Продолжительность : 24 м. 11 с.
Вид битрейта : Переменный
Битрейт : 129 Кбит/сек
Максимальный битрейт : 181 Кбит/сек
Каналы : 2 канала
Расположение каналов : Front: L R
Частота : 48,0 КГц
Частота кадров : 46,875 кадров/сек (1024 SPF)
Метод сжатия : С потерями
Размер потока : 22,3 Мбайт (25%)
Дата кодирования : UTC 2008-11-11 13:00:39
Дата пометки : UTC 2008-11-11 13:00:41
Общее
Полное имя : C:\torrents\[ANIME4PSP] Requiem From The Darkness\13. Shinigami, or rather the Shichinin Misaki (Part 2).mp4
Формат : MPEG-4
Профиль формата : Base Media
Идентификатор кодека : isom (isom/avc1)
Размер файла : 88,8 Мбайт
Продолжительность : 23 м. 41 с.
Режим общего битрейта : Переменный
Общий поток : 524 Кбит/сек
Дата кодирования : UTC 2008-11-11 13:27:29
Дата пометки : UTC 2008-11-11 13:27:29

Видео
Идентификатор : 1
Формат : AVC
Формат/Информация : Advanced Video Codec
Профиль формата : [email protected]
Настройки формата : CABAC / 2 Ref Frames
Параметр CABAC формата : Да
Параметр RefFrames формата : 2 кадра
Идентификатор кодека : avc1
Идентификатор кодека/Информация : Advanced Video Coding
Продолжительность : 23 м. 41 с.
Битрейт : 392 Кбит/сек
Максимальный битрейт : 2283 Кбит/сек
Ширина : 368 пикселей
Высота : 272 пикселя
Соотношение сторон : 4:3
Режим частоты кадров : Постоянный
Частота кадров : 23,976 (24000/1001) кадра/сек
Цветовое пространство : YUV
Субдискретизация насыщенности : 4:2:0
Битовая глубина : 8 бит
Тип развёртки : Прогрессивная
Бит/(Пиксели*Кадры) : 0.163
Размер потока : 66,5 Мбайт (75%)
Библиотека кодирования : x264 core 58 svn-736
Настройки программы : cabac=1 / ref=2 / deblock=1:-2:-1 / analyse=0x1:0x131 / me=umh / subme=7 / brdo=1 / mixed_ref=1 / me_range=16 / chroma_me=1 / trellis=2 / 8x8dct=0 / cqm=0 / deadzone=21,11 / chroma_qp_offset=0 / threads=2 / nr=0 / decimate=0 / mbaff=0 / bframes=3 / b_pyramid=0 / b_adapt=1 / b_bias=0 / direct=3 / wpredb=1 / bime=1 / keyint=250 / keyint_min=25 / scenecut=40(pre) / rc=2pass / bitrate=392 / ratetol=1.0 / rceq='blurCplx^(1-qComp)' / qcomp=0.60 / qpmin=10 / qpmax=51 / qpstep=4 / cplxblur=20.0 / qblur=0.5 / ip_ratio=1.40 / pb_ratio=1.30
Дата кодирования : UTC 2008-11-11 13:27:29
Дата пометки : UTC 2008-11-11 13:27:40

Аудио
Идентификатор : 2
Формат : AAC
Формат/Информация : Advanced Audio Codec
Профиль формата : LC
Идентификатор кодека : mp4a-40-2
Продолжительность : 23 м. 41 с.
Вид битрейта : Переменный
Битрейт : 129 Кбит/сек
Максимальный битрейт : 183 Кбит/сек
Каналы : 2 канала
Расположение каналов : Front: L R
Частота : 48,0 КГц
Частота кадров : 46,875 кадров/сек (1024 SPF)
Метод сжатия : С потерями
Размер потока : 21,8 Мбайт (25%)
Дата кодирования : UTC 2008-11-11 13:27:39
Дата пометки : UTC 2008-11-11 13:27:40


Трекер:  [ 02-Июн-2018 04:36 ]

  

Скачать .torrent

Размер .torrent файла 13 KB


Размер: 1.15 GB
Хэш (hash) релиза: fd56cda78af548b832e10a951b1be920c1e6c896
Подписка на обновления:

Торренты, похожие на [ANIME4PSP] Реквием из Тьмы Requiem from the Darkness скачать торрент

Форум Название Автор Размер S L Добавлен
Видео для Консолей ·· [ANIME4PSP] Реквием из Тьмы / Requiem from the Darkness (Тонокацу Хидэки)[2003 г., мистерия, фэнтези, ужасы, DVDRip][субтитры] Galfimbul 12341557671.15 GB 0 0 1339080120

17:42

7-Июн-12

Еще никто не оставлял запись к записи скачать торрент [ANIME4PSP] Реквием из Тьмы Requiem from the Darkness . Будь первым!

!Обратная связь