The Big Fat Quiz o.. (2012) | Frantic | 1988 | 720p | Dual | 8.2

Скачать через торрент [ANIME4PSP] Карас "Ворон" Karas Фильм бесплатно в хорошем качестве torrent

Скачивайте на UnionPeer.org фильмы через торрент без регистрации. Новинки кино в хорошем качестве через торрент. На UnionPeer.org можно скачать через торрент фильмы 2014 и 2015 годов. Самые новые фильмы.

Скачать торрент [ANIME4PSP] Карас "Ворон" Karas бесплатно через .torrent фильм мультфильм сериал

Статистика раздачи
Размер:  954 MB   |    Зарегистрирован:  1 месяц 17 дней   |    .torrent скачан:  34 раза   |   
Раздают:  1  
   
загрузка...
 
Автор Сообщение

Galfimbul

avatar Galfimbul


Карас "Ворон" / Karas
Год выпуска: 2005
Страна: Япония
Жанр: Приключения, фэнтези
Продолжительность: 6 эп x 30 мин
Перевод: Профессиональный (полное дублирование)
Режиссер: Сато Кэйити / Satou Keiichi
Описание: Миры людей и демонов враждовали друг с другом с незапамятных времен... И кажется, столь же долго девушка Юри и ее слуга Карас старались поддерживать между ними спокойствие и порядок. Однако люди окончательно потеряли страх перед тьмой. Взбешенный людским упрямством, Карас изменил своим прежним соратникам, взял себе имя Эко и повел группу механизированных демонов войной против человеческой расы. Тем временем детектив Кьюр, глава отдела демонологических преступлений, начинает расследование ряда таинственных убийств, предположительно совершенных неким водным монстром; а демон Ню, прибывший в город сразиться с Эко, сталкивается с этим водным монстром и узнает, что на самом деле тот сменил облик и выдает себя за великого воина Караса...
Качество: DVDRip
Формат: MPEG
Видео кодек: H.264
Аудио кодек: ACC
Видео: 480x272 / 608 Kbps / H.264 / 23.976 fps
Аудио: AAC LC / 48 KHz / 129 Kbps

<div class="sp-wrap">
<div class="sp-head folded">Доп. информация</div>
<div class="sp-body">
</div>
</div>
<div class="sp-wrap">
<div class="sp-head folded">MediaInfo</div>
<div class="sp-body">Общее
Полное имя : C:\torrents\[ANIME4PSP] Karas [2005, dir. Satou Keiichi]\Karas [1 of 6].mp4
Формат : MPEG-4
Профиль формата : Base Media
Идентификатор кодека : isom (isom/avc1)
Размер файла : 160 Мбайт
Продолжительность : 30 м. 11 с.
Режим общего битрейта : Переменный
Общий поток : 740 Кбит/сек
Дата кодирования : UTC 2008-11-17 23:56:37
Дата пометки : UTC 2008-11-17 23:56:37

Видео
Идентификатор : 1
Формат : AVC
Формат/Информация : Advanced Video Codec
Профиль формата : [email protected]
Настройки формата : CABAC / 3 Ref Frames
Параметр CABAC формата : Да
Параметр RefFrames формата : 3 кадра
Идентификатор кодека : avc1
Идентификатор кодека/Информация : Advanced Video Coding
Продолжительность : 30 м. 11 с.
Битрейт : 608 Кбит/сек
Максимальный битрейт : 3457 Кбит/сек
Ширина : 480 пикселей
Высота : 272 пикселя
Соотношение сторон : 16:9
Режим частоты кадров : Постоянный
Частота кадров : 23,976 (24000/1001) кадра/сек
Цветовое пространство : YUV
Субдискретизация насыщенности : 4:2:0
Битовая глубина : 8 бит
Тип развёртки : Прогрессивная
Бит/(Пиксели*Кадры) : 0.194
Размер потока : 131 Мбайт (82%)
Библиотека кодирования : x264 core 56 svn-667M
Настройки программы : cabac=1 / ref=2 / deblock=1:0:0 / analyse=0x1:0x131 / me=umh / subme=6 / brdo=1 / mixed_ref=1 / me_range=16 / chroma_me=1 / trellis=1 / 8x8dct=0 / cqm=0 / deadzone=21,11 / chroma_qp_offset=0 / threads=2 / nr=0 / decimate=1 / mbaff=0 / bframes=3 / b_pyramid=0 / b_adapt=1 / b_bias=0 / direct=3 / wpredb=1 / bime=1 / keyint=250 / keyint_min=25 / scenecut=40(pre) / rc=2pass / bitrate=608 / ratetol=1.0 / rceq='blurCplx^(1-qComp)' / qcomp=0.60 / qpmin=10 / qpmax=51 / qpstep=4 / cplxblur=20.0 / qblur=0.5 / ip_ratio=1.40 / pb_ratio=1.30
Дата кодирования : UTC 2008-11-17 23:56:37
Дата пометки : UTC 2008-11-17 23:57:03

Аудио
Идентификатор : 2
Формат : AAC
Формат/Информация : Advanced Audio Codec
Профиль формата : LC
Идентификатор кодека : mp4a-40-2
Продолжительность : 30 м. 11 с.
Вид битрейта : Переменный
Битрейт : 128 Кбит/сек
Максимальный битрейт : 197 Кбит/сек
Каналы : 2 канала
Расположение каналов : Front: L R
Частота : 48,0 КГц
Частота кадров : 46,875 кадров/сек (1024 SPF)
Метод сжатия : С потерями
Размер потока : 27,7 Мбайт (17%)
Дата кодирования : UTC 2008-11-17 23:57:02
Дата пометки : UTC 2008-11-17 23:57:03</div>
</div>
Общее
Полное имя : C:\torrents\[ANIME4PSP] Karas [2005, dir. Satou Keiichi]\Karas [2 of 6].mp4
Формат : MPEG-4
Профиль формата : Base Media
Идентификатор кодека : isom (isom/avc1)
Размер файла : 156 Мбайт
Продолжительность : 29 м. 32 с.
Режим общего битрейта : Переменный
Общий поток : 739 Кбит/сек
Дата кодирования : UTC 2008-11-18 00:22:35
Дата пометки : UTC 2008-11-18 00:22:35

Видео
Идентификатор : 1
Формат : AVC
Формат/Информация : Advanced Video Codec
Профиль формата : [email protected]
Настройки формата : CABAC / 3 Ref Frames
Параметр CABAC формата : Да
Параметр RefFrames формата : 3 кадра
Идентификатор кодека : avc1
Идентификатор кодека/Информация : Advanced Video Coding
Продолжительность : 29 м. 32 с.
Битрейт : 608 Кбит/сек
Максимальный битрейт : 3627 Кбит/сек
Ширина : 480 пикселей
Высота : 272 пикселя
Соотношение сторон : 16:9
Режим частоты кадров : Постоянный
Частота кадров : 23,976 (24000/1001) кадра/сек
Цветовое пространство : YUV
Субдискретизация насыщенности : 4:2:0
Битовая глубина : 8 бит
Тип развёртки : Прогрессивная
Бит/(Пиксели*Кадры) : 0.194
Размер потока : 128 Мбайт (82%)
Библиотека кодирования : x264 core 56 svn-667M
Настройки программы : cabac=1 / ref=2 / deblock=1:0:0 / analyse=0x1:0x131 / me=umh / subme=6 / brdo=1 / mixed_ref=1 / me_range=16 / chroma_me=1 / trellis=1 / 8x8dct=0 / cqm=0 / deadzone=21,11 / chroma_qp_offset=0 / threads=2 / nr=0 / decimate=1 / mbaff=0 / bframes=3 / b_pyramid=0 / b_adapt=1 / b_bias=0 / direct=3 / wpredb=1 / bime=1 / keyint=250 / keyint_min=25 / scenecut=40(pre) / rc=2pass / bitrate=608 / ratetol=1.0 / rceq='blurCplx^(1-qComp)' / qcomp=0.60 / qpmin=10 / qpmax=51 / qpstep=4 / cplxblur=20.0 / qblur=0.5 / ip_ratio=1.40 / pb_ratio=1.30
Дата кодирования : UTC 2008-11-18 00:22:35
Дата пометки : UTC 2008-11-18 00:22:50

Аудио
Идентификатор : 2
Формат : AAC
Формат/Информация : Advanced Audio Codec
Профиль формата : LC
Идентификатор кодека : mp4a-40-2
Продолжительность : 29 м. 32 с.
Вид битрейта : Переменный
Битрейт : 128 Кбит/сек
Максимальный битрейт : 174 Кбит/сек
Каналы : 2 канала
Расположение каналов : Front: L R
Частота : 48,0 КГц
Частота кадров : 46,875 кадров/сек (1024 SPF)
Метод сжатия : С потерями
Размер потока : 27,0 Мбайт (17%)
Дата кодирования : UTC 2008-11-18 00:22:49
Дата пометки : UTC 2008-11-18 00:22:50
Общее
Полное имя : C:\torrents\[ANIME4PSP] Karas [2005, dir. Satou Keiichi]\Karas [3 of 6].mp4
Формат : MPEG-4
Профиль формата : Base Media
Идентификатор кодека : isom (isom/avc1)
Размер файла : 158 Мбайт
Продолжительность : 29 м. 54 с.
Режим общего битрейта : Переменный
Общий поток : 739 Кбит/сек
Дата кодирования : UTC 2008-11-18 00:48:21
Дата пометки : UTC 2008-11-18 00:48:21

Видео
Идентификатор : 1
Формат : AVC
Формат/Информация : Advanced Video Codec
Профиль формата : [email protected]
Настройки формата : CABAC / 3 Ref Frames
Параметр CABAC формата : Да
Параметр RefFrames формата : 3 кадра
Идентификатор кодека : avc1
Идентификатор кодека/Информация : Advanced Video Coding
Продолжительность : 29 м. 54 с.
Битрейт : 608 Кбит/сек
Максимальный битрейт : 3654 Кбит/сек
Ширина : 480 пикселей
Высота : 272 пикселя
Соотношение сторон : 16:9
Режим частоты кадров : Постоянный
Частота кадров : 23,976 (24000/1001) кадра/сек
Цветовое пространство : YUV
Субдискретизация насыщенности : 4:2:0
Битовая глубина : 8 бит
Тип развёртки : Прогрессивная
Бит/(Пиксели*Кадры) : 0.194
Размер потока : 130 Мбайт (82%)
Библиотека кодирования : x264 core 56 svn-667M
Настройки программы : cabac=1 / ref=2 / deblock=1:0:0 / analyse=0x1:0x131 / me=umh / subme=6 / brdo=1 / mixed_ref=1 / me_range=16 / chroma_me=1 / trellis=1 / 8x8dct=0 / cqm=0 / deadzone=21,11 / chroma_qp_offset=0 / threads=2 / nr=0 / decimate=1 / mbaff=0 / bframes=3 / b_pyramid=0 / b_adapt=1 / b_bias=0 / direct=3 / wpredb=1 / bime=1 / keyint=250 / keyint_min=25 / scenecut=40(pre) / rc=2pass / bitrate=608 / ratetol=1.0 / rceq='blurCplx^(1-qComp)' / qcomp=0.60 / qpmin=10 / qpmax=51 / qpstep=4 / cplxblur=20.0 / qblur=0.5 / ip_ratio=1.40 / pb_ratio=1.30
Дата кодирования : UTC 2008-11-18 00:48:21
Дата пометки : UTC 2008-11-18 00:48:42

Аудио
Идентификатор : 2
Формат : AAC
Формат/Информация : Advanced Audio Codec
Профиль формата : LC
Идентификатор кодека : mp4a-40-2
Продолжительность : 29 м. 54 с.
Вид битрейта : Переменный
Битрейт : 128 Кбит/сек
Максимальный битрейт : 176 Кбит/сек
Каналы : 2 канала
Расположение каналов : Front: L R
Частота : 48,0 КГц
Частота кадров : 46,875 кадров/сек (1024 SPF)
Метод сжатия : С потерями
Размер потока : 27,3 Мбайт (17%)
Дата кодирования : UTC 2008-11-18 00:48:41
Дата пометки : UTC 2008-11-18 00:48:42
Общее
Полное имя : C:\torrents\[ANIME4PSP] Karas [2005, dir. Satou Keiichi]\Karas [4 of 6].mp4
Формат : MPEG-4
Профиль формата : Base Media
Идентификатор кодека : isom (isom/avc1)
Размер файла : 160 Мбайт
Продолжительность : 30 м. 19 с.
Режим общего битрейта : Переменный
Общий поток : 739 Кбит/сек
Дата кодирования : UTC 2008-11-18 01:14:22
Дата пометки : UTC 2008-11-18 01:14:22

Видео
Идентификатор : 1
Формат : AVC
Формат/Информация : Advanced Video Codec
Профиль формата : [email protected]
Настройки формата : CABAC / 3 Ref Frames
Параметр CABAC формата : Да
Параметр RefFrames формата : 3 кадра
Идентификатор кодека : avc1
Идентификатор кодека/Информация : Advanced Video Coding
Продолжительность : 30 м. 19 с.
Битрейт : 608 Кбит/сек
Максимальный битрейт : 3094 Кбит/сек
Ширина : 480 пикселей
Высота : 272 пикселя
Соотношение сторон : 16:9
Режим частоты кадров : Постоянный
Частота кадров : 23,976 (24000/1001) кадра/сек
Цветовое пространство : YUV
Субдискретизация насыщенности : 4:2:0
Битовая глубина : 8 бит
Тип развёртки : Прогрессивная
Бит/(Пиксели*Кадры) : 0.194
Размер потока : 132 Мбайт (82%)
Библиотека кодирования : x264 core 56 svn-667M
Настройки программы : cabac=1 / ref=2 / deblock=1:0:0 / analyse=0x1:0x131 / me=umh / subme=6 / brdo=1 / mixed_ref=1 / me_range=16 / chroma_me=1 / trellis=1 / 8x8dct=0 / cqm=0 / deadzone=21,11 / chroma_qp_offset=0 / threads=2 / nr=0 / decimate=1 / mbaff=0 / bframes=3 / b_pyramid=0 / b_adapt=1 / b_bias=0 / direct=3 / wpredb=1 / bime=1 / keyint=250 / keyint_min=25 / scenecut=40(pre) / rc=2pass / bitrate=608 / ratetol=1.0 / rceq='blurCplx^(1-qComp)' / qcomp=0.60 / qpmin=10 / qpmax=51 / qpstep=4 / cplxblur=20.0 / qblur=0.5 / ip_ratio=1.40 / pb_ratio=1.30
Дата кодирования : UTC 2008-11-18 01:14:22
Дата пометки : UTC 2008-11-18 01:14:38

Аудио
Идентификатор : 2
Формат : AAC
Формат/Информация : Advanced Audio Codec
Профиль формата : LC
Идентификатор кодека : mp4a-40-2
Продолжительность : 30 м. 19 с.
Вид битрейта : Переменный
Битрейт : 128 Кбит/сек
Максимальный битрейт : 206 Кбит/сек
Каналы : 2 канала
Расположение каналов : Front: L R
Частота : 48,0 КГц
Частота кадров : 46,875 кадров/сек (1024 SPF)
Метод сжатия : С потерями
Размер потока : 27,8 Мбайт (17%)
Дата кодирования : UTC 2008-11-18 01:14:37
Дата пометки : UTC 2008-11-18 01:14:38
Общее
Полное имя : C:\torrents\[ANIME4PSP] Karas [2005, dir. Satou Keiichi]\Karas [5 of 6].mp4
Формат : MPEG-4
Профиль формата : Base Media
Идентификатор кодека : isom (isom/avc1)
Размер файла : 161 Мбайт
Продолжительность : 30 м. 23 с.
Режим общего битрейта : Переменный
Общий поток : 739 Кбит/сек
Дата кодирования : UTC 2008-11-18 01:41:11
Дата пометки : UTC 2008-11-18 01:41:11

Видео
Идентификатор : 1
Формат : AVC
Формат/Информация : Advanced Video Codec
Профиль формата : [email protected]
Настройки формата : CABAC / 3 Ref Frames
Параметр CABAC формата : Да
Параметр RefFrames формата : 3 кадра
Идентификатор кодека : avc1
Идентификатор кодека/Информация : Advanced Video Coding
Продолжительность : 30 м. 23 с.
Битрейт : 608 Кбит/сек
Максимальный битрейт : 3566 Кбит/сек
Ширина : 480 пикселей
Высота : 272 пикселя
Соотношение сторон : 16:9
Режим частоты кадров : Постоянный
Частота кадров : 23,976 (24000/1001) кадра/сек
Цветовое пространство : YUV
Субдискретизация насыщенности : 4:2:0
Битовая глубина : 8 бит
Тип развёртки : Прогрессивная
Бит/(Пиксели*Кадры) : 0.194
Размер потока : 132 Мбайт (82%)
Библиотека кодирования : x264 core 56 svn-667M
Настройки программы : cabac=1 / ref=2 / deblock=1:0:0 / analyse=0x1:0x131 / me=umh / subme=6 / brdo=1 / mixed_ref=1 / me_range=16 / chroma_me=1 / trellis=1 / 8x8dct=0 / cqm=0 / deadzone=21,11 / chroma_qp_offset=0 / threads=2 / nr=0 / decimate=1 / mbaff=0 / bframes=3 / b_pyramid=0 / b_adapt=1 / b_bias=0 / direct=3 / wpredb=1 / bime=1 / keyint=250 / keyint_min=25 / scenecut=40(pre) / rc=2pass / bitrate=608 / ratetol=1.0 / rceq='blurCplx^(1-qComp)' / qcomp=0.60 / qpmin=10 / qpmax=51 / qpstep=4 / cplxblur=20.0 / qblur=0.5 / ip_ratio=1.40 / pb_ratio=1.30
Дата кодирования : UTC 2008-11-18 01:41:11
Дата пометки : UTC 2008-11-18 01:41:21

Аудио
Идентификатор : 2
Формат : AAC
Формат/Информация : Advanced Audio Codec
Профиль формата : LC
Идентификатор кодека : mp4a-40-2
Продолжительность : 30 м. 23 с.
Вид битрейта : Переменный
Битрейт : 128 Кбит/сек
Максимальный битрейт : 199 Кбит/сек
Каналы : 2 канала
Расположение каналов : Front: L R
Частота : 48,0 КГц
Частота кадров : 46,875 кадров/сек (1024 SPF)
Метод сжатия : С потерями
Размер потока : 27,8 Мбайт (17%)
Дата кодирования : UTC 2008-11-18 01:41:20
Дата пометки : UTC 2008-11-18 01:41:21
Общее
Полное имя : C:\torrents\[ANIME4PSP] Karas [2005, dir. Satou Keiichi]\Karas [6 of 6].mp4
Формат : MPEG-4
Профиль формата : Base Media
Идентификатор кодека : isom (isom/avc1)
Размер файла : 159 Мбайт
Продолжительность : 30 м. 2 с.
Режим общего битрейта : Переменный
Общий поток : 739 Кбит/сек
Дата кодирования : UTC 2008-11-18 02:07:30
Дата пометки : UTC 2008-11-18 02:07:30

Видео
Идентификатор : 1
Формат : AVC
Формат/Информация : Advanced Video Codec
Профиль формата : [email protected]
Настройки формата : CABAC / 3 Ref Frames
Параметр CABAC формата : Да
Параметр RefFrames формата : 3 кадра
Идентификатор кодека : avc1
Идентификатор кодека/Информация : Advanced Video Coding
Продолжительность : 30 м. 2 с.
Битрейт : 608 Кбит/сек
Максимальный битрейт : 2017 Кбит/сек
Ширина : 480 пикселей
Высота : 272 пикселя
Соотношение сторон : 16:9
Режим частоты кадров : Постоянный
Частота кадров : 23,976 (24000/1001) кадра/сек
Цветовое пространство : YUV
Субдискретизация насыщенности : 4:2:0
Битовая глубина : 8 бит
Тип развёртки : Прогрессивная
Бит/(Пиксели*Кадры) : 0.194
Размер потока : 131 Мбайт (82%)
Библиотека кодирования : x264 core 56 svn-667M
Настройки программы : cabac=1 / ref=2 / deblock=1:0:0 / analyse=0x1:0x131 / me=umh / subme=6 / brdo=1 / mixed_ref=1 / me_range=16 / chroma_me=1 / trellis=1 / 8x8dct=0 / cqm=0 / deadzone=21,11 / chroma_qp_offset=0 / threads=2 / nr=0 / decimate=1 / mbaff=0 / bframes=3 / b_pyramid=0 / b_adapt=1 / b_bias=0 / direct=3 / wpredb=1 / bime=1 / keyint=250 / keyint_min=25 / scenecut=40(pre) / rc=2pass / bitrate=608 / ratetol=1.0 / rceq='blurCplx^(1-qComp)' / qcomp=0.60 / qpmin=10 / qpmax=51 / qpstep=4 / cplxblur=20.0 / qblur=0.5 / ip_ratio=1.40 / pb_ratio=1.30
Дата кодирования : UTC 2008-11-18 02:07:30
Дата пометки : UTC 2008-11-18 02:07:34

Аудио
Идентификатор : 2
Формат : AAC
Формат/Информация : Advanced Audio Codec
Профиль формата : LC
Идентификатор кодека : mp4a-40-2
Продолжительность : 30 м. 2 с.
Вид битрейта : Переменный
Битрейт : 128 Кбит/сек
Максимальный битрейт : 187 Кбит/сек
Каналы : 2 канала
Расположение каналов : Front: L R
Частота : 48,0 КГц
Частота кадров : 46,875 кадров/сек (1024 SPF)
Метод сжатия : С потерями
Размер потока : 27,4 Мбайт (17%)
Дата кодирования : UTC 2008-11-18 02:07:33
Дата пометки : UTC 2008-11-18 02:07:34


Трекер:  [ 02-Июн-2018 04:06 ]

  

Скачать .torrent

Размер .torrent файла 19 KB


Размер: 954 MB
Хэш (hash) релиза: 0104877d1d4a2f86f61aaaacc057e83a3a48a582
Подписка на обновления:

Еще никто не оставлял запись к записи скачать торрент [ANIME4PSP] Карас "Ворон" Karas . Будь первым!

!Обратная связь