3 of a Kind | HDCAM I Can Only Imagine | Science fiction

Скачать через торрент Америка Полна Талантов Americas Got Talent Фильм бесплатно в хорошем качестве torrent

Скачивайте на UnionPeer.org фильмы через торрент без регистрации. Новинки кино в хорошем качестве через торрент. На UnionPeer.org можно скачать через торрент фильмы 2014 и 2015 годов. Самые новые фильмы.

Скачать торрент Америка Полна Талантов Americas Got Talent бесплатно через .torrent фильм мультфильм сериал

Статистика раздачи
Размер:  1.84 GB   |    Зарегистрирован:  23 дня   |    .torrent скачан:  29 раз   |   
Раздают:  1  
   
загрузка...
 
Автор Сообщение

Galfimbul

avatar Galfimbul


Америка Полна Талантов / America's Got Talent

Дата/Год выпуска: 2018
Страна: США
Жанр: Телешоу
Продолжительность: ~ 85 минут
Перевод: Не требуется
Русские субтитры: нет

Оригинальная аудиодорожка: английский
Режиссер: Саймон Коуэлл (Simon Cowell), Кен Уорик (Ken Warwick), Сесиль Фро-Кутаз (Cecile Frot-Coutaz)

Телеканал: NBC
Описание: Тринадцатый сезон американской версии популярного шоу талантов начинается! Талантливые и не очень американцы и гости из других стран вновь готовы проявить своё мастерство и побороться за главный приз - 1 миллион долларов. Хотите новых впечатлений, смешных и трогательных моментов, экстрима и просто хорошего настроения? Тогда присоединяйтесь к раздаче.

Доп. информация:
Ведущая - Тайра Бэнкс (Tyra Banks)
Судьи - Саймон Коуэлл (Simon Cowell), Хоуи Мэндел (Howie Mandel), Мелани Браун (Mel B), Хайди Клум (Heidi Klum)

Качество: WebRip-AVC 720p
Формат: MKV
Видео: MPEG4 Video (H264) 1280x720 29.97fps
Аудио: AAC 48000Hz stereo
Субтитры: английские

Сэмпл: Яндекс.Диск
Auditions, Week 1 (30.05.18)
<div class="sp-wrap">
<div class="sp-head folded">Auditions, Week 1 | Americas.Got.Talent.S13E01.720p.WEBRip.mkv | 01:24:34 | 1.84 GiB</div>
<div class="sp-body">
</div>
</div>
<div class="sp-wrap">
<div class="sp-head folded">Auditions, Week 1 | Americas.Got.Talent.S13E01.720p.WEBRip.mkv | 01:24:34 | 1.84 GiB</div>
<div class="sp-body">

GeneralUnique ID : 233721278002897377996162231126977090177 (0xAFD514AEF4D920377124ADEC42AB1281)Complete name : D:\TV\America's Got Talent 2018\Americas.Got.Talent.S13E01.720p.WEBRip.mkvFormat : MatroskaFormat version : Version 4 / Version 2File size : 1.84 GiBDuration : 1 h 24 minOverall bit rate : 3 117 kb/sEncoded date : UTC 2018-06-01 09:09:37Writing application : mkvmerge v23.0.0 ('The Bride Said No') 64-bitWriting library : libebml v1.3.6 + libmatroska v1.4.9

VideoID : 1Format : AVCFormat/Info : Advanced Video CodecFormat profile : [email protected] settings : CABAC / 5 Ref FramesFormat settings, CABAC : YesFormat settings, RefFrames : 5 framesCodec ID : V_MPEG4/ISO/AVCDuration : 1 h 24 minBit rate : 3 050 kb/sWidth : 1 280 pixelsHeight : 720 pixelsDisplay aspect ratio : 16:9Frame rate mode : ConstantFrame rate : 29.970 (30000/1001) FPSColor space : YUVChroma subsampling : 4:2:0Bit depth : 8 bitsScan type : ProgressiveBits/(Pixel*Frame) : 0.110Stream size : 1.80 GiB (98%)Default : YesForced : No

AudioID : 2Format : AACFormat/Info : Advanced Audio CodecFormat profile : HE-AAC / LCFormat settings : ExplicitCodec ID : A_AAC-2Duration : 1 h 24 minBit rate : 64.0 kb/sChannel(s) : 2 channelsChannel positions : Front: L RSampling rate : 48.0 kHz / 24.0 kHzFrame rate : 23.438 FPS (1024 SPF)Compression mode : LossyStream size : 38.7 MiB (2%)Language : EnglishDefault : YesForced : No

TextID : 3Format : UTF-8Codec ID : S_TEXT/UTF8Codec ID/Info : UTF-8 Plain TextDuration : 1 h 23 minBit rate : 82 b/sCount of elements : 1653Stream size : 50.8 KiB (0%)Language : EnglishDefault : YesForced : No

Menu00:00:00.000 : en:Chapter 100:09:06.900 : en:Chapter 200:17:31.933 : en:Chapter 300:25:32.933 : en:Chapter 400:33:41.966 : en:Chapter 500:40:50.000 : en:Chapter 600:48:03.966 : en:Chapter 700:55:58.966 : en:Chapter 801:03:27.966 : en:Chapter 901:09:36.000 : en:Chapter 1001:15:12.933 : en:Chapter 11
</div>
</div>
Britain's Got Talent

Сезон 1. 2007 год.
Сезон 2. 2008 год.
Сезон 3. 2009 год.
Сезон 8. 2014 год.
Сезон 9. 2015 год.
Сезон 10. 2016 год.
Сезон 11. 2017 год.

America's Got Talent

Сезон 1. 2006 год.
Сезон 2. 2007 год.
Сезон 3. 2008 год.
Сезон 4. 2009 год.
Сезон 5. 2010 год.
Сезон 8. 2013 год.
Сезон 9. 2014 год.
Сезон 10. 2015 год.
Сезон 11. 2016 год.
Сезон 12. 2017 год.

Holland's Got Talent

Сезон 8. 2016 год.

Україна має талант

Сезон 1. 2009 год. [2]
Сезон 2. 2010 год. [2]
Сезон 3. 2011 год. [2], [3]
Сезон 4. 2012 год.
Сезон 5. 2013 год.
Сезон 6. 2014 год.
Сезон 7. 2015 год.

Минута славы

Сезон 3. 2008 год.
Сезон 4. 2009 год.
Сезон 5. 2010 год.
Сезон 8. 2013 год.
Внимание! Раздача ведётся путём добавления новых выпусков; при каждом добавлении создаётся новый торрент. Чтобы начать докачку нового выпуска, пользователям необходимо сделать следующее:

остановить скачивание,
удалить старый торрент у себя из клиента (старые серии удалять не надо),
скачать новый торрент и запустить его у себя в клиенте вместо старого, при этом указать клиенту путь в старую папку куда и должно происходить скачивание новых выпусков.

Ваш клиент при этом должен произвести хеширование (проверку) старой папки (если не производит сам - помогите ему сделать это). В результате он будет докачивать только те выпуски, которых у Вас ещё нет. Старые выпуски при этом не удаляются, а продолжают раздаваться!
Eсли Вы уже удалили старые выпуски, то предотвратить их повторную закачку можно, сняв галочки в соответствующих местах при запуске нового торрента. По возможности, желательно не удалять старые выпуски как можно дольше, чтобы релизёр не только продолжал раздавать старые выпуски, но и смог сконцентрироваться на новых.
Релиз:

Трекер:  [ 01-Июн-2018 21:12 ]

  

Скачать .torrent

Размер .torrent файла 19 KB


Размер: 1.84 GB
Хэш (hash) релиза: a6b5bef6da08f7565368b9b429cb74dac6471c3c
Подписка на обновления:

Торренты, похожие на Америка Полна Талантов Americas Got Talent скачать торрент

Форум Название Автор Размер S L Добавлен
Развлекательные телепередачи и шоу ·· Америка Полна Талантов / America's Got Talent / Сезон 11 / Серия 1-13 [2016, Телешоу, HDTVRip 720p] Galfimbul 2800056010826.08 GB 0 0 1469715930

17:25

28-Июл-16

Развлекательные телепередачи и шоу ·· Америка Полна Талантов / America's Got Talent / Сезон 10 / Серия 1-13 [2015, Телешоу, HDTV 720p] Galfimbul 1745902565116.26 GB 0 0 1438783613

17:06

5-Авг-15

Еще никто не оставлял запись к записи скачать торрент Америка Полна Талантов Americas Got Talent . Будь первым!

!Обратная связь