Samantha Colley | Janet Leigh | Enrique Iglesias - El Perdedor Ft. Marco Antonio Solís.

Скачать через торрент Собибор Фильм бесплатно в хорошем качестве torrent

Скачивайте на UnionPeer.org фильмы через торрент без регистрации. Новинки кино в хорошем качестве через торрент. На UnionPeer.org можно скачать через торрент фильмы 2014 и 2015 годов. Самые новые фильмы.

Скачать торрент Собибор бесплатно через .torrent фильм мультфильм сериал

Статистика раздачи
Размер:  2.18 GB   |    Зарегистрирован:  24 дня   |    .torrent скачан:  176 раз   |   
Раздают:  1  
   
загрузка...
 
Автор Сообщение

Galfimbul

avatar Galfimbul


Собибор

Страна: Россия
Жанр: военный, драма
Год выпуска: 2018
Продолжительность: 01:57:15
Субтитры: нет
Режиссер: Константин Хабенский
В ролях: Константин Хабенский (Александр Печерский), Кристофер Ламберт (Карл Френцель), Фелисе Янкелль (Люка), Дайнюс Казлаускас (Лео), Сергей Годин (Аркадий Вайспапир), Роман Агеев (Борис Цыбульский), Гела Месхи (Семен Розенфельд), Михалина Ольшанска (Ханна), Мария Кожевникова (Сельма), Вольфганг Черны (Густав Вагнер), Филипп Рейнхардт (Зигфрид), Дирк Мартенс (Бэкмен)
Описание: История сопротивления человеческого духа бездушной машине уничтожения. В октябре 1943 года заключённые лагеря Собибор во главе с лейтенантом Красной Армии Александром Печерским поднимают восстание — единственное успешное восстание в нацистском лагере смерти.

Качество видео: WEB-DLRip
Формат видео: AVI

Видео: 720x304 (2.37:1), 24.000 fps, XviD build 73 ~2274 kbps avg, 0.43 bit/pixel
Аудио: 48 kHz, AC3 Dolby Digital, 3/2 (L,C,R,l,r) + LFE ch, ~384 kbps
<div class="post-box-default">
<div class="post-box">Сэмпл</div>
</div>
Format                      : AVI
Format/Info                 : Audio Video Interleave
Format profile              : OpenDML
File size                   : 2.18 GiB
Duration                    : 1 h 57 min
Overall bit rate            : 2 665 kb/s
Writing application         : VirtualDubMod 1.5.10.3 | www.virtualdub-fr.org || (build 2550/release)
Writing library             : VirtualDubMod build 2550/release

Video
ID                          : 0
Format                      : MPEG-4 Visual
Format profile              : Advanced [email protected]
Format settings             : BVOP1 / Custom Matrix
Format settings, BVOP       : 1
Format settings, QPel       : No
Format settings, GMC        : No warppoints
Format settings, Matrix     : Custom
Codec ID                    : XVID
Codec ID/Hint               : XviD
Duration                    : 1 h 57 min
Bit rate                    : 2 269 kb/s
Width                       : 720 pixels
Height                      : 304 pixels
Display aspect ratio        : 2.35:1
Frame rate                  : 24.000 FPS
Color space                 : YUV
Chroma subsampling          : 4:2:0
Bit depth                   : 8 bits
Scan type                   : Progressive
Compression mode            : Lossy
Bits/(Pixel*Frame)          : 0.432
Stream size                 : 1.86 GiB (85%)
Writing library             : XviD 73

Audio
ID                          : 1
Format                      : AC-3
Format/Info                 : Audio Coding 3
Codec ID                    : 2000
Duration                    : 1 h 57 min
Bit rate mode               : Constant
Bit rate                    : 384 kb/s
Channel(s)                  : 6 channels
Channel positions           : Front: L C R, Side: L R, LFE
Sampling rate               : 48.0 kHz
Frame rate                  : 31.250 FPS (1536 SPF)
Bit depth                   : 16 bits
Compression mode            : Lossy
Stream size                 : 322 MiB (14%)
Alignment                   : Split accross interleaves
Interleave, duration        : 42  ms (1.00 video frame)
Interleave, preload duratio : 500  ms
Service kind                : Complete Main


Трекер:  [ 01-Июн-2018 16:54 ]

  

Скачать .torrent

Размер .torrent файла 11 KB


Размер: 2.18 GB
Хэш (hash) релиза: efd44a429df5068976d9d76334bc35286e570938
Подписка на обновления:

Торренты, похожие на Собибор скачать торрент

Форум Название Автор Размер S L Добавлен
Российские фильмы 2016-2018 (Новинки русского кино) ·%· Собибор (2018) WEB-DLRip 720p от MIXTV | iTunes Galfimbul 23579894222.2 GB 0 0 1528956762

09:12

14-Июн-18

Российские фильмы 2016-2018 (Новинки русского кино) ·· Собибор (Константин Хабенский) [2018 г., Военный, драма, WEB-DL 720p] | iTunes Galfimbul 38907238953.62 GB 0 0 1527837325

10:15

1-Июн-18

Российские фильмы 2016-2018 (Новинки русского кино) ·· Собибор (Константин Хабенский) [2018 г., Военный, драма, WEB-DLRip] | iTunes Galfimbul 22048768002.05 GB 0 0 1527837321

10:15

1-Июн-18

Российские фильмы до 2016 ·· Собибор (Константин Хабенский) [2018, Россия, военный, драма, WEB-DL 1080p] Original Rus Galfimbul 43271419554.03 GB 0 0 1527836491

10:01

1-Июн-18

Российские фильмы 2016-2018 (Новинки русского кино) ·· Собибор (Константин Хабенский) [2018, военный, драма, WEB-DL 1080p] iTunes Galfimbul 43271419554.03 GB 0 0 1527799387

23:43

31-Май-18

Документальные фильмы и телепередачи ·· Собибор. Непокоренные (Ольга Товма, Алексей Товма) [2013, Документальный, война, история, биография, SATRip] Galfimbul 639942656610 MB 0 0 1476554024

20:53

15-Окт-16

Документальные фильмы и телепередачи ·· Лейтенант Печерский из Собибора. (Екатерина Гальперина)Фильм Леонида Млечина. [2013, Документальный, DVDRip] Galfimbul 481088652459 MB 0 0 1382216135

23:55

19-Окт-13

Еще никто не оставлял запись к записи скачать торрент Собибор . Будь первым!

!Обратная связь