Kurzfilme | Li-Wu Tai | Ben 10 2016 S02E17 Super-Villain Team-Up 720p WEB-DL AAC2 0 H 264-YFN

Скачать через торрент Невероятная история о гигантской груше Den utrolige historie om den kæmpestore pære Фильм бесплатно в хорошем качестве torrent

Скачивайте на UnionPeer.org фильмы через торрент без регистрации. Новинки кино в хорошем качестве через торрент. На UnionPeer.org можно скачать через торрент фильмы 2014 и 2015 годов. Самые новые фильмы.

Скачать торрент Невероятная история о гигантской груше Den utrolige historie om den kæmpestore pære бесплатно через .torrent фильм мультфильм сериал

Статистика раздачи
Размер:  1.46 GB   |    Зарегистрирован:  21 день   |    .torrent скачан:  49 раз   |   
Раздают:  1  
   
загрузка...
 
Автор Сообщение

Galfimbul

avatar Galfimbul


Невероятная история о гигантской груше / Den utrolige historie om den kæmpestore pære

Страна: Дания
Жанр: мультфильм
Год выпуска: 2017
Продолжительность: 01:18:29
Перевод: Профессиональный (дублированный)
Субтитры: нет
Оригинальная аудиодорожка: нет
Режиссер: Амалия Нэсби Фик, Юрген Лердам, Филип Эйнштейн Липски / Amalie Næsby Fick, Jørgen Lerdam, Philip Einstein Lipski
В главных ролях: Альфред Бьерр Ларсен, Лива Эльвира Магнуссен, Петер Фрёдин, Хенрик Койфоэд, Петер Плаугборг, Сёрен Пильмарк, Якоб Офтебро, Питер Зельдер, Бьярне Хенриксен, Петер Ауде
Описание: Эта невероятная сказка берёт своё начало в прекрасном Солнечном городе на берегу моря, где живут Слон Себастьян и его лучший друг Кот Митчо. Однажды друзья находят бутылку с посланием от пропавшего бургомистра, который просит спасти его с Таинственного острова.
Также в бутылке оказывается семечко груши, которое они сажают в землю. Ночью из него вырастает гигантская груша. Друзья решают использовать ее в качестве корабля. Себастьян, Митчо и их приятель — профессор Глюкоза отправляются в невероятное приключение. На встречу с пиратами, морским драконом и опасными призраками. Их ждут испытания, но ничто не может остановить друзей — они полны решимости найти Таинственный остров и вернуть бургомистра домой.
Качество видео: BDRip
Формат видео: AVI

Видео: 720x384 (1.88:1), 24.000 fps, XviD build 73 ~2196 kbps avg, 0.33 bit/pixel
Аудио: 48 kHz, AC3 Dolby Digital, 3/2 (L,C,R,l,r) + LFE ch, ~448 kbps
<div class="post-box-default">
<div class="post-box">Сэмпл</div>
</div>
Format                      : AVI
Format/Info                 : Audio Video Interleave
File size                   : 1.46 GiB
Duration                    : 1 h 18 min
Overall bit rate            : 2 654 kb/s
Writing application         : VirtualDubMod 1.5.10.3 | www.virtualdub-fr.org || (build 2550/release)
Writing library             : VirtualDubMod build 2550/release

Video
ID                          : 0
Format                      : MPEG-4 Visual
Format profile              : Advanced [email protected]
Format settings             : BVOP1 / Custom Matrix
Format settings, BVOP       : 1
Format settings, QPel       : No
Format settings, GMC        : No warppoints
Format settings, Matrix     : Custom
Codec ID                    : XVID
Codec ID/Hint               : XviD
Duration                    : 1 h 18 min
Bit rate                    : 2 197 kb/s
Width                       : 720 pixels
Height                      : 384 pixels
Display aspect ratio        : 1.85:1
Frame rate                  : 24.000 FPS
Color space                 : YUV
Chroma subsampling          : 4:2:0
Bit depth                   : 8 bits
Scan type                   : Progressive
Compression mode            : Lossy
Bits/(Pixel*Frame)          : 0.331
Stream size                 : 1.20 GiB (83%)
Writing library             : XviD 73

Audio
ID                          : 1
Format                      : AC-3
Format/Info                 : Audio Coding 3
Codec ID                    : 2000
Duration                    : 1 h 18 min
Bit rate mode               : Constant
Bit rate                    : 448 kb/s
Channel(s)                  : 6 channels
Channel positions           : Front: L C R, Side: L R, LFE
Sampling rate               : 48.0 kHz
Frame rate                  : 31.250 FPS (1536 SPF)
Bit depth                   : 16 bits
Compression mode            : Lossy
Stream size                 : 252 MiB (17%)
Alignment                   : Split accross interleaves
Interleave, duration        : 42  ms (1.00 video frame)
Interleave, preload duratio : 500  ms
Service kind                : Complete Main


Трекер:  [ 01-Июн-2018 15:30 ]

  

Скачать .torrent

Размер .torrent файла 15 KB


Размер: 1.46 GB
Хэш (hash) релиза: 5288f90e6d4b5ad89d5901bf26297632fecd6f62
Подписка на обновления:

Торренты, похожие на Невероятная история о гигантской груше Den utrolige historie om den kæmpestore pære скачать торрент

Форум Название Автор Размер S L Добавлен
Мультфильмы до 2016 ·· Невероятная история о гигантской груше / Den utrolige historie om den kæmpestore pære (Амалия Нэсби Фик, Юрген Лердам, Филип Эйнштейн Липски) [2017, Дания, мультфильм, Blu-ray Disc 1080p] [RUS] Dub Galfimbul 1301076829412.12 GB 0 0 1527832890

09:01

1-Июн-18

Еще никто не оставлял запись к записи скачать торрент Невероятная история о гигантской груше Den utrolige historie om den kæmpestore pære . Будь первым!

!Обратная связь