Hank Azaria | Texas Poker Pro v17.1 | Watch Movie

Скачать через торрент [iPad] Танки бесплатно русская версия torrent активатор

Статистика раздачи
Размер:  1.52 GB   |    Зарегистрирован:  24 дня   |    .torrent скачан:  31 раз   |   
Раздают:  1  
   
загрузка...
 
Автор Сообщение

Galfimbul

avatar Galfimbul


Танки
«Первые непобедимые»

6.146 / 10 / 10
Год выпуска: 2018
Страна: Россия
Жанр: Приключения, история, военный
Продолжительность: 01:33:13

Перевод: (Не требуется)
Оригинальная аудиодорожка: Есть
Cубтитры: Нет
Режиссёр: Ким Дружинин
Сценарий: Андрей Назаров
Продюсер: Дмитрий Щербанов, Олег Антипов
Оператор: Дмитрий Трифонов
Композитор: Михаил Костылев
Художник: Александр Суворов
В ролях: Андрей Мерзликин, Аглая Тарасова, Александр Тютин, Сергей Стукалов, Антон Филипенко, Алексей Овсянников, Сергей Четвертков, Николай Горшков, Дмитрий Поднозов, Юрий Ицков

Бюджет: 140 000 000 руб.
Сборы в России: $1 591 172

Мировая премьера:
Премьера (РФ): 26 апреля 2018, «Двадцатый Век Фокс СНГ»

Релиз на DVD: 18 июня 2018, «НД Плэй»
Релиз на Blu-Ray: 18 июня 2018, «НД Плэй»

Цифровой релиз: 31 мая 2018, «Планета информ»

Описание: На пороге войны с фашистской Германией инженер Михаил Кошкин разрабатывает прототип нового инновационного танка Т-34. Чтобы доказать уникальность боевой машины, Кошкин и его команда отправляются в Москву на танках своим ходом. Но вскоре пробег превращается в непредсказуемую гонку, где бездорожье лишь меньшее из зол… Пройдя череду опасных приключений и благодаря безупречным техническим и боевым качествам новых танков, героям удается одержать верх над преследователями и доказать превосходство Т-34.
Качество исходника: WEB-DL 1080p (BlueBird)
Качество: WEB-DLRip
Тип: SD (576p)
Контейнер: M4V
Видео: H.264, 1024x456, 2.25:1, 2 200 Kbps, 23.976 fps

Аудио: Русский/Оригинальная дорожка, AAC / 2.0 / 128 Kbps / 48.0 KHz
Sort Name: Танки
XID: Apple:vendor_id:2018-1046545
contentID: 1386647529
Screenwriters: Андрей Назаров
Producers: Дмитрий Щербанов, Олег Антипов
Director: Ким Дружинин
Cast: Андрей Мерзликин, Аглая Тарасова, Александр Тютин, Сергей Стукалов, Антон Филипенко, Алексей Овсянников, Сергей Четвертков, Николай Горшков, Дмитрий Поднозов, Юрий Ицков
Studio: МЕДИА-ТРЕСТ
Rating: 134
Long Description: На пороге войны с фашистской Германией инженер Михаил Кошкин разрабатывает прототип нового инновационного танка Т-34. Чтобы доказать уникальность боевой машины, Кошкин и его команда отправляются в Москву на танках своим ходом. Но вскоре пробег превращается в непредсказуемую гонку, где бездорожье лишь меньшее из зол... Пройдя череду опасных приключений и благодаря безупречным техническим и боевым качествам новых танков, героям удается одержать верх над преследователями и доказать превосходство Т-34.
Description: На пороге войны с фашистской Германией инженер Михаил Кошкин разрабатывает прототип нового инновационного танка Т-34. Чтобы доказать уникальность боевой машины, Кошкин и его команда отправляются в Москву на танках своим ходом. Но вскоре пробег превращается в непредсказуемую гонку, где бездорожье лишь меньшее из зол...
Release Date: 2018-04-26T08:00:00Z
Genre: Action & Adventure
Artist: Ким Дружинин
Name: Танки
General
Complete name : /Users/imac/HandBrake/Tanki.(SD).(pk).m4v
Format : MPEG-4
Codec ID : M4V
File size : 1.52 GiB
Duration : 1h 33mn
Overall bit rate mode : Variable
Overall bit rate : 2 331 Kbps
Movie name : Танки
Performer : Ким Дружинин
Director : Ким Дружинин
Actor : Андрей Мерзликин / Аглая Тарасова / Александр Тютин / Сергей Стукалов / Антон Филипенко / Алексей Овсянников / Сергей Четвертков / Николай Горшков / Дмитрий Поднозов / Юрий Ицков
Screenplay by : Андрей Назаров
Producer : Дмитрий Щербанов / Олег Антипов
Production studio : МЕДИА-ТРЕСТ
Genre : Action & Adventure
ContentType : Short Film
Description : На пороге войны с фашистской Германией инженер Михаил Кошкин разрабатывает прототип нового инновационного танка Т-34. Чтобы доказать уникальность боевой машины, Кошкин и его команда отправляются в Москву на танках своим ходом. Но вскоре пробег превращается в непредсказуемую гонку, где бездорожье лишь меньшее из зол...
Recorded date : UTC 2018-04-26 08:00:00
Encoded date : UTC 2018-06-01 10:17:18
Tagged date : UTC 2018-06-01 10:17:53
Cover : Yes
Rating : None
Title/Sort : Танки
LongDescription : На пороге войны с фашистской Германией инженер Михаил Кошкин разрабатывает прототип нового инновационного танка Т-34. Чтобы доказать уникальность боевой машины, Кошкин и его команда отправляются в Москву на танках своим ходом. Но вскоре пробег превращается в непредсказуемую гонку, где бездорожье лишь меньшее из зол... Пройдя череду опасных приключений и благодаря безупречным техническим и боевым качествам новых танков, героям удается одержать верх над преследователями и доказать превосходство Т-34.
AppleStoreCatalogID : 1386647529
Vendor : Apple:vendor_id:2018-1046545
ContentRating : ru-movie|12+|200|

Video #1
ID : 1
Format : AVC
Format/Info : Advanced Video Codec
Format profile : [email protected]
Format settings, CABAC : Yes
Format settings, ReFrames : 9 frames
Codec ID : avc1
Codec ID/Info : Advanced Video Coding
Duration : 1h 33mn
Source duration : 1h 33mn
Bit rate : 2 200 Kbps
Width : 1 024 pixels
Height : 456 pixels
Display aspect ratio : 2.25:1
Frame rate mode : Variable
Frame rate : 23.976 fps
Minimum frame rate : 23.974 fps
Maximum frame rate : 23.981 fps
Color space : YUV
Chroma subsampling : 4:2:0
Bit depth : 8 bits
Scan type : Progressive
Bits/(Pixel*Frame) : 0.197
Stream size : 1.43 GiB (94%)
Source stream size : 1.43 GiB (94%)
Title : Main Program
Writing library : x264 core 155 r2893 b00bcaf
Encoding settings : cabac=1 / ref=9 / deblock=1:0:0 / analyse=0x3:0x113 / me=umh / subme=9 / psy=1 / psy_rd=1.00:0.00 / mixed_ref=1 / me_range=32 / chroma_me=1 / trellis=1 / 8x8dct=1 / cqm=0 / deadzone=21,11 / fast_pskip=1 / chroma_qp_offset=-2 / threads=14 / lookahead_threads=1 / sliced_threads=0 / nr=0 / decimate=1 / interlaced=0 / bluray_compat=0 / constrained_intra=0 / bframes=6 / b_pyramid=2 / b_adapt=2 / b_bias=0 / direct=1 / weightb=1 / open_gop=0 / weightp=2 / keyint=240 / keyint_min=24 / scenecut=40 / intra_refresh=0 / rc_lookahead=40 / rc=2pass / mbtree=1 / bitrate=2200 / ratetol=1.0 / qcomp=0.60 / qpmin=0 / qpmax=69 / qpstep=4 / cplxblur=20.0 / qblur=0.5 / ip_ratio=1.40 / aq=1:1.00
Language : Russian
Encoded date : UTC 2018-06-01 10:17:18
Tagged date : UTC 2018-06-01 10:17:23
Color range : Limited
Color primaries : BT.709
Transfer characteristics : BT.709
Matrix coefficients : BT.709

Video #2
ID : 4
Format : JPEG
Codec ID : jpeg
Duration : 1h 33mn
Bit rate mode : Variable
Bit rate : 371 bps
Width : 640 pixels
Height : 285 pixels
Display aspect ratio : 2.25:1
Frame rate mode : Variable
Frame rate : 0.002 fps
Minimum frame rate : 0.001 fps
Maximum frame rate : 0.005 fps
Color space : YUV
Chroma subsampling : 4:2:0
Bit depth : 8 bits
Compression mode : Lossy
Bits/(Pixel*Frame) : 1.017
Stream size : 226 KiB (0%)
Title : Chapter Images
Language : Russian
Encoded date : UTC 2018-06-01 10:17:27
Tagged date : UTC 2018-06-01 10:17:27

Audio
ID : 2
Format : AAC
Format/Info : Advanced Audio Codec
Format profile : LC
Codec ID : 40
Duration : 1h 33mn
Source duration : 1h 33mn
Bit rate mode : Variable
Bit rate : 124 Kbps
Maximum bit rate : 203 Kbps
Channel(s) : 2 channels
Channel positions : Front: L R
Sampling rate : 48.0 KHz
Compression mode : Lossy
Stream size : 82.8 MiB (5%)
Source stream size : 82.8 MiB (5%)
Title : Russian Stereo
Language : Russian
Encoded date : UTC 2018-06-01 10:17:19
Tagged date : UTC 2018-06-01 10:17:25

Menu #1
00:00:00.000 : 1
00:03:02.000 : 2
00:13:51.000 : 3
00:25:19.000 : 4
00:36:29.000 : 5
00:46:24.000 : 6
00:53:51.000 : 7
01:04:12.000 : 8
01:14:09.000 : 9
01:29:33.000 : 10

Menu #2
ID : 3
Codec ID : text
Duration : 1h 33mn
Language : Russian
Encoded date : UTC 2018-06-01 10:17:25
Tagged date : UTC 2018-06-01 10:17:25
00:00:00.000 : 1
00:03:02.000 : 2
00:13:51.000 : 3
00:25:19.000 : 4
00:36:29.000 : 5
00:46:24.000 : 6
00:53:51.000 : 7
01:04:12.000 : 8
01:14:09.000 : 9
01:29:33.000 : 10
Bit rate mode : VBR
x264 [info]: frame I:1003  Avg QP:13.12  size: 68365
x264 [info]: frame P:34834 Avg QP:15.88  size: 23432
x264 [info]: frame B:98261 Avg QP:17.85  size:  6646
x264 [info]: consecutive B-frames:  2.3%  4.1%  7.5% 61.5% 11.6% 11.8%  1.1%
x264 [info]: mb I  I16..4:  7.4% 68.3% 24.3%
x264 [info]: mb P  I16..4:  0.9%  8.5%  2.3%  P16..4: 36.6% 29.9% 16.8%  0.0%  0.0%    skip: 5.0%
x264 [info]: mb B  I16..4:  0.1%  1.0%  0.4%  B16..8: 37.4% 11.7%  3.1%  direct: 5.0%  skip:41.2%  L0:41.0% L1:46.2% BI:12.8%
x264 [info]: 8x8 transform intra:71.1% inter:68.5%
x264 [info]: coded y,uvDC,uvAC intra: 89.2% 70.7% 45.6% inter: 28.1% 15.5% 1.3%
x264 [info]: i16 v,h,dc,p: 23% 16% 13% 48%
x264 [info]: i8 v,h,dc,ddl,ddr,vr,hd,vl,hu: 13%  9%  5%  9% 13% 13% 13% 11% 14%
x264 [info]: i4 v,h,dc,ddl,ddr,vr,hd,vl,hu: 12%  8%  3%  9% 14% 14% 14% 11% 14%
x264 [info]: i8c dc,h,v,p: 46% 25% 17% 12%
x264 [info]: Weighted P-Frames: Y:5.4% UV:1.1%
x264 [info]: ref P L0: 52.2% 10.3% 15.8%  6.5%  4.9%  3.6%  3.0%  1.8%  1.8%  0.2%  0.0%
x264 [info]: ref B L0: 77.7% 10.4%  4.9%  2.5%  1.9%  1.4%  0.9%  0.3%
x264 [info]: ref B L1: 95.7%  4.3%
x264 [info]: kb/s:2199.66

Релиз подготовлен для просмотра на Apple TV, iPad, iPhone, iPod Touch.
Для просмотра данного релиза на компьютере с ОС Windows рекомендуется использовать VLC media player

Трекер:  [ 01-Июн-2018 14:06 ]

  

Скачать .torrent

Размер .torrent файла 31 KB


Размер: 1.52 GB
Хэш (hash) релиза: abba44cfba628e78d068775bb99dd23a96aa4dd7

Еще никто не оставлял запись к записи скачать торрент [iPad] Танки . Будь первым!

!Обратная связь