Boys over Flowers | Management Strategy | Oak Island - Fluch und Legende

Скачать через торрент [ATV3] Танки бесплатно русская версия torrent активатор

Статистика раздачи
Размер:  3.29 GB   |    Зарегистрирован:  24 дня   |    .torrent скачан:  45 раз   |   
Раздают:  1  
   
загрузка...
 
Автор Сообщение

Galfimbul

avatar Galfimbul


Танки
«Первые непобедимые»

6.146 / 10 / 10
Год выпуска: 2018
Страна: Россия
Жанр: Приключения, история, военный
Продолжительность: 01:33:13

Перевод: (Не требуется)
Оригинальная аудиодорожка: Есть
Cубтитры: Нет
Режиссёр: Ким Дружинин
Сценарий: Андрей Назаров
Продюсер: Дмитрий Щербанов, Олег Антипов
Оператор: Дмитрий Трифонов
Композитор: Михаил Костылев
Художник: Александр Суворов
В ролях: Андрей Мерзликин, Аглая Тарасова, Александр Тютин, Сергей Стукалов, Антон Филипенко, Алексей Овсянников, Сергей Четвертков, Николай Горшков, Дмитрий Поднозов, Юрий Ицков

Бюджет: 140 000 000 руб.
Сборы в России: $1 591 172

Мировая премьера:
Премьера (РФ): 26 апреля 2018, «Двадцатый Век Фокс СНГ»

Релиз на DVD: 18 июня 2018, «НД Плэй»
Релиз на Blu-Ray: 18 июня 2018, «НД Плэй»

Цифровой релиз: 31 мая 2018, «Планета информ»

Описание: На пороге войны с фашистской Германией инженер Михаил Кошкин разрабатывает прототип нового инновационного танка Т-34. Чтобы доказать уникальность боевой машины, Кошкин и его команда отправляются в Москву на танках своим ходом. Но вскоре пробег превращается в непредсказуемую гонку, где бездорожье лишь меньшее из зол… Пройдя череду опасных приключений и благодаря безупречным техническим и боевым качествам новых танков, героям удается одержать верх над преследователями и доказать превосходство Т-34.
Качество исходника: WEB-DL 1080p (BlueBird)
Качество: WEB-DL
Тип: HD (1080p)
Контейнер: M4V
Видео: H.264, 1908x848, 2.25:1, 4 512 Kbps, 23.976 fps

Аудио 1: Русский/Оригинальная дорожка, AAC / 2.0 / 160 Kbps / 48.0 KHz
Аудио 2: Русский/Оригинальная дорожка, AC-3 / 5.1 / 384 Kbps / 48.0 KHz
Sort Name: Танки
XID: Apple:vendor_id:2018-1046545
contentID: 1386647529
Screenwriters: Андрей Назаров
Producers: Дмитрий Щербанов, Олег Антипов
Director: Ким Дружинин
Cast: Андрей Мерзликин, Аглая Тарасова, Александр Тютин, Сергей Стукалов, Антон Филипенко, Алексей Овсянников, Сергей Четвертков, Николай Горшков, Дмитрий Поднозов, Юрий Ицков
Studio: МЕДИА-ТРЕСТ
Rating: 134
Long Description: На пороге войны с фашистской Германией инженер Михаил Кошкин разрабатывает прототип нового инновационного танка Т-34. Чтобы доказать уникальность боевой машины, Кошкин и его команда отправляются в Москву на танках своим ходом. Но вскоре пробег превращается в непредсказуемую гонку, где бездорожье лишь меньшее из зол... Пройдя череду опасных приключений и благодаря безупречным техническим и боевым качествам новых танков, героям удается одержать верх над преследователями и доказать превосходство Т-34.
Description: На пороге войны с фашистской Германией инженер Михаил Кошкин разрабатывает прототип нового инновационного танка Т-34. Чтобы доказать уникальность боевой машины, Кошкин и его команда отправляются в Москву на танках своим ходом. Но вскоре пробег превращается в непредсказуемую гонку, где бездорожье лишь меньшее из зол...
Release Date: 2018-04-26T08:00:00Z
Genre: Action & Adventure
Artist: Ким Дружинин
Name: Танки
General
Complete name : /Users/imac/HandBrake/Tanki.WEB-DL.1080p.m4v
Format : MPEG-4
Codec ID : M4V
File size : 3.29 GiB
Duration : 1h 33mn
Overall bit rate mode : Variable
Overall bit rate : 5 059 Kbps
Movie name : Танки
Performer : Ким Дружинин
Director : Ким Дружинин
Actor : Андрей Мерзликин / Аглая Тарасова / Александр Тютин / Сергей Стукалов / Антон Филипенко / Алексей Овсянников / Сергей Четвертков / Николай Горшков / Дмитрий Поднозов / Юрий Ицков
Screenplay by : Андрей Назаров
Producer : Дмитрий Щербанов / Олег Антипов
Production studio : МЕДИА-ТРЕСТ
Genre : Action & Adventure
ContentType : Short Film
Description : На пороге войны с фашистской Германией инженер Михаил Кошкин разрабатывает прототип нового инновационного танка Т-34. Чтобы доказать уникальность боевой машины, Кошкин и его команда отправляются в Москву на танках своим ходом. Но вскоре пробег превращается в непредсказуемую гонку, где бездорожье лишь меньшее из зол...
Recorded date : UTC 2018-04-26 08:00:00
Encoded date : UTC 2018-06-01 09:18:55
Tagged date : UTC 2018-06-01 09:20:16
Cover : Yes
Rating : None
Title/Sort : Танки
LongDescription : На пороге войны с фашистской Германией инженер Михаил Кошкин разрабатывает прототип нового инновационного танка Т-34. Чтобы доказать уникальность боевой машины, Кошкин и его команда отправляются в Москву на танках своим ходом. Но вскоре пробег превращается в непредсказуемую гонку, где бездорожье лишь меньшее из зол... Пройдя череду опасных приключений и благодаря безупречным техническим и боевым качествам новых танков, героям удается одержать верх над преследователями и доказать превосходство Т-34.
AppleStoreCatalogID : 1386647529
Vendor : Apple:vendor_id:2018-1046545
ContentRating : ru-movie|12+|200|

Video #1
ID : 1
Format : AVC
Format/Info : Advanced Video Codec
Format profile : [email protected]
Format settings, CABAC : Yes
Format settings, ReFrames : 5 frames
Codec ID : avc1
Codec ID/Info : Advanced Video Coding
Duration : 1h 33mn
Bit rate : 4 512 Kbps
Width : 1 908 pixels
Height : 848 pixels
Display aspect ratio : 2.25:1
Frame rate mode : Variable
Frame rate : 23.976 fps
Minimum frame rate : 23.810 fps
Maximum frame rate : 24.390 fps
Color space : YUV
Chroma subsampling : 4:2:0
Bit depth : 8 bits
Scan type : Progressive
Bits/(Pixel*Frame) : 0.116
Stream size : 2.94 GiB (89%)
Title : Main Program
Language : Russian
Encoded date : UTC 2018-06-01 09:18:55
Tagged date : UTC 2018-06-01 09:19:09
Color range : Limited
Color primaries : BT.709
Transfer characteristics : BT.709
Matrix coefficients : BT.709

Video #2
ID : 5
Format : JPEG
Codec ID : jpeg
Duration : 1h 33mn
Bit rate mode : Variable
Bit rate : 373 bps
Width : 640 pixels
Height : 284 pixels
Display aspect ratio : 2.25:1
Frame rate mode : Variable
Frame rate : 0.002 fps
Minimum frame rate : 0.001 fps
Maximum frame rate : 0.005 fps
Color space : YUV
Chroma subsampling : 4:2:0
Bit depth : 8 bits
Compression mode : Lossy
Bits/(Pixel*Frame) : 1.026
Stream size : 228 KiB (0%)
Title : Chapter Images
Language : Russian
Encoded date : UTC 2018-06-01 09:19:13
Tagged date : UTC 2018-06-01 09:19:13

Audio #1
ID : 2
Format : AAC
Format/Info : Advanced Audio Codec
Format profile : LC
Codec ID : 40
Duration : 1h 33mn
Source duration : 1h 33mn
Bit rate mode : Variable
Bit rate : 155 Kbps
Maximum bit rate : 238 Kbps
Channel(s) : 2 channels
Channel positions : Front: L R
Sampling rate : 48.0 KHz
Compression mode : Lossy
Stream size : 103 MiB (3%)
Source stream size : 103 MiB (3%)
Title : Russian Stereo
Language : Russian
Encoded date : UTC 2018-06-01 09:18:55
Tagged date : UTC 2018-06-01 09:19:03

Audio #2
ID : 3
Format : AC-3
Format/Info : Audio Coding 3
Mode extension : CM (complete main)
Format settings, Endianness : Big
Codec ID : ac-3
Duration : 1h 33mn
Bit rate mode : Constant
Bit rate : 384 Kbps
Channel(s) : 6 channels
Channel positions : Front: L C R, Side: L R, LFE
Sampling rate : 48.0 KHz
Bit depth : 16 bits
Compression mode : Lossy
Stream size : 256 MiB (8%)
Title : Russian DD 5.1
Language : Russian
Encoded date : UTC 2018-06-01 09:18:55
Tagged date : UTC 2018-06-01 09:19:09

Menu #1
00:00:00.000 : 1
00:03:02.000 : 2
00:13:51.000 : 3
00:25:19.000 : 4
00:36:29.000 : 5
00:46:24.000 : 6
00:53:51.000 : 7
01:04:12.000 : 8
01:14:09.000 : 9
01:29:33.000 : 10

Menu #2
ID : 4
Codec ID : text
Duration : 1h 33mn
Language : Russian
Encoded date : UTC 2018-06-01 09:19:09
Tagged date : UTC 2018-06-01 09:19:09
00:00:00.000 : 1
00:03:02.000 : 2
00:13:51.000 : 3
00:25:19.000 : 4
00:36:29.000 : 5
00:46:24.000 : 6
00:53:51.000 : 7
01:04:12.000 : 8
01:14:09.000 : 9
01:29:33.000 : 10
Bit rate mode : VBR

Релиз подготовлен для просмотра на Apple TV, iPad, iPhone, iPod Touch.
Для просмотра данного релиза на компьютере с ОС Windows рекомендуется использовать VLC media player

Трекер:  [ 01-Июн-2018 12:36 ]

  

Скачать .torrent

Размер .torrent файла 33 KB


Размер: 3.29 GB
Хэш (hash) релиза: a4f45f65c6708d3dd113a787fae9dcf9e207b0fa

Торренты, похожие на [ATV3] Танки скачать торрент

Форум Название Автор Размер S L Добавлен
Видео (iPhone/iPod Touch/iPad) ·· [ATV3] Тачки 3 / Cars 3 (Брайан Фи / Brian Fee ) [2017, США, Мультфильм, комедия, приключения, семейный, спорт, WEB-DL, HD (1080p)] DUB + Original + sub (rus, eng) Galfimbul 46972834744.37 GB 0 0 1508751763

12:42

23-Окт-17

Еще никто не оставлял запись к записи скачать торрент [ATV3] Танки . Будь первым!

!Обратная связь