regarder Episode | Pamela Adlon | Maria the Virgin Witch

Скачать через торрент Собибор Фильм бесплатно в хорошем качестве torrent

Скачивайте на UnionPeer.org фильмы через торрент без регистрации. Новинки кино в хорошем качестве через торрент. На UnionPeer.org можно скачать через торрент фильмы 2014 и 2015 годов. Самые новые фильмы.

Скачать торрент Собибор бесплатно через .torrent фильм мультфильм сериал

Статистика раздачи
Размер:  4.03 GB   |    Зарегистрирован:  23 дня   |    .torrent скачан:  183 раза   |   
Раздают:  1  
   
загрузка...
 
Автор Сообщение

Galfimbul

avatar Galfimbul


Собибор

Страна: Россия
Студия: Патриот Продакшнс
Жанр: военный, драма
Год выпуска: 2018
Продолжительность: 01:57:05

Перевод: Не требуется
Субтитры: нет
Оригинальная аудиодорожка: русский

Режиссёр: Константин Хабенский

В ролях: Константин Хабенский, Кристофер Ламберт, Фелисе Янкелль, Дайнюс Казлаускас, Сергей Годин, Роман Агеев, Гела Месхи, Михалина Ольшанска, Мария Кожевникова, Вольфганг Черны
Описание: История сопротивления человеческого духа бездушной машине уничтожения. В октябре 1943 года заключённые лагеря Собибор во главе с лейтенантом Красной Армии Александром Печерским поднимают восстание — единственное успешное восстание в нацистском лагере смерти.

Sample

Тип релиза: WEB-DL 1080p
Контейнер: MKV

Видео: MPEG4 AVC Video, H264, 1920x806, 24 fps, 4542 kbps
Аудио: Russian (AC3, 6 ch, 384 kbps, 16 bits, 48.0 KHz) - оригинал
General
Unique ID : 238925192340037257975328542048718385426 (0xB3BF517826C5F988BF52B40E151F7112)
Complete name : D:\Собибор 2018 WEB-DL 1080p.mkv
Format : Matroska
Format version : Version 2
File size : 4.03 GiB
Duration : 1 h 57 min
Overall bit rate : 4 928 kb/s
Encoded date : UTC 2018-05-31 18:16:18
Writing application : mkvmerge v8.3.0 ('Over the Horizon') 64bit
Writing library : libebml v1.3.1 + libmatroska v1.4.2

Video
ID : 1
Format : AVC
Format/Info : Advanced Video Codec
Format profile : [email protected]
Format settings : CABAC / 5 Ref Frames
Format settings, CABAC : Yes
Format settings, ReFrames : 5 frames
Codec ID : V_MPEG4/ISO/AVC
Duration : 1 h 57 min
Bit rate : 4 542 kb/s
Width : 1 920 pixels
Height : 806 pixels
Display aspect ratio : 2.40:1
Frame rate mode : Constant
Frame rate : 24.000 FPS
Color space : YUV
Chroma subsampling : 4:2:0
Bit depth : 8 bits
Scan type : Progressive
Bits/(Pixel*Frame) : 0.122
Stream size : 3.71 GiB (92%)
Language : English
Default : Yes
Forced : No
Color range : Limited
Color primaries : BT.709
Transfer characteristics : BT.709
Matrix coefficients : BT.709

Audio
ID : 2
Format : AC-3
Format/Info : Audio Coding 3
Codec ID : A_AC3
Duration : 1 h 57 min
Bit rate mode : Constant
Bit rate : 384 kb/s
Channel(s) : 6 channels
Channel positions : Front: L C R, Side: L R, LFE
Sampling rate : 48.0 kHz
Frame rate : 31.250 FPS (1536 SPF)
Bit depth : 16 bits
Compression mode : Lossy
Stream size : 322 MiB (8%)
Language : Russian
Service kind : Complete Main
Default : Yes
Forced : No


Трекер:  [ 01-Июн-2018 10:01 ]

  

Скачать .torrent

Размер .torrent файла 20 KB


Размер: 4.03 GB
Хэш (hash) релиза: 82a3d4ba7f2a0d29d0d524a3bcef4099f006dfee
Подписка на обновления:

Торренты, похожие на Собибор скачать торрент

Форум Название Автор Размер S L Добавлен
Российские фильмы 2016-2018 (Новинки русского кино) ·%· Собибор (2018) WEB-DLRip 720p от MIXTV | iTunes Galfimbul 23579894222.2 GB 0 0 1528956762

09:12

14-Июн-18

Российские фильмы до 2016 ·· Собибор (Константин Хабенский) [2018, военный, драма, WEB-DLRip] Galfimbul 23401512962.18 GB 0 0 1527861258

16:54

1-Июн-18

Российские фильмы 2016-2018 (Новинки русского кино) ·· Собибор (Константин Хабенский) [2018 г., Военный, драма, WEB-DL 720p] | iTunes Galfimbul 38907238953.62 GB 0 0 1527837325

10:15

1-Июн-18

Российские фильмы 2016-2018 (Новинки русского кино) ·· Собибор (Константин Хабенский) [2018 г., Военный, драма, WEB-DLRip] | iTunes Galfimbul 22048768002.05 GB 0 0 1527837321

10:15

1-Июн-18

Российские фильмы 2016-2018 (Новинки русского кино) ·· Собибор (Константин Хабенский) [2018, военный, драма, WEB-DL 1080p] iTunes Galfimbul 43271419554.03 GB 0 0 1527799387

23:43

31-Май-18

Документальные фильмы и телепередачи ·· Собибор. Непокоренные (Ольга Товма, Алексей Товма) [2013, Документальный, война, история, биография, SATRip] Galfimbul 639942656610 MB 0 0 1476554024

20:53

15-Окт-16

Документальные фильмы и телепередачи ·· Лейтенант Печерский из Собибора. (Екатерина Гальперина)Фильм Леонида Млечина. [2013, Документальный, DVDRip] Galfimbul 481088652459 MB 0 0 1382216135

23:55

19-Окт-13

Еще никто не оставлял запись к записи скачать торрент Собибор . Будь первым!

!Обратная связь