Masamune-kun no Revenge | Start10 v1.0. | Ming Chen

Скачать через торрент Верхом на комете Off on a Comet Фильм бесплатно в хорошем качестве torrent

Скачивайте на UnionPeer.org фильмы через торрент без регистрации. Новинки кино в хорошем качестве через торрент. На UnionPeer.org можно скачать через торрент фильмы 2014 и 2015 годов. Самые новые фильмы.

Скачать торрент Верхом на комете Off on a Comet бесплатно через .torrent фильм мультфильм сериал

Статистика раздачи
Размер:  693 MB   |    Зарегистрирован:  24 дня   |    .torrent скачан:  27 раз   |   
Раздают:  1  
   
загрузка...
 
Автор Сообщение

Galfimbul

avatar Galfimbul


Верхом на комете / Off on a Comet

Страна: Австралия
Жанр: Экранизация, мультфильм
Продолжительность: 00:49:16
Год выпуска: 1979
Перевод: Дубляж (6 канал СПб)
Русские субтитры: нет

Режиссёр: Ричард Слапчински / Richard Slapczynski

Роли озвучивали: Филлип Хинтон, Рон Хэддрик, Барбара Фроули, Беван Уилсон, Джон Хэнлон

Роли дублировали: Лидия Мельникова, Михаил Черняк, Вадим Гущин

Описание: Комета, столкнувшись с Землей, уносит с собою часть ее поверхности. И люди, волею судеб оказавшиеся на этом куске, переживают множество приключений, не понимая, что происходит. Как ни странно, тем не менее все остаются живы и все заканчивается благополучно.

Доп. информация: с разрешения модератора выкладываю выходной файл программы видеозахвата без перекодировки.

Качество: VHSRip
Формат: MPG
Видео: MPEG 2, 720x576 (4/3), 25.000 fps, 1 760 Kbps
Аудио: MPEG Audio, 44,1.0 KHz, 2 channels, 128 Kbps
Субтитры: отсутствуют
V:\Фильмы\Худ_фильмы\Диккенс\Верхом на комете.mpg General Complete name : V:\Фильмы\Худ_фильмы\Диккенс\Верхом на комете.mpg Format : MPEG-PS File size : 693 MiB Duration : 49mn 17s Overall bit rate : 1 966 Kbps Video #224 ID : 224 (0xE0) Format : MPEG Video Format version : Version 2 Format profile : [email protected] Format settings, Matrix : Default Duration : 49mn 17s Bit rate mode : Variable Bit rate : 1 760 Kbps Nominal bit rate : 2 600 Kbps Width : 720 pixels Height : 576 pixels Display aspect ratio : 4:3 Frame rate : 25.000 fps Standard : PAL Colorimetry : 4:2:0 Scan type : Progressive Bits/(Pixel*Frame) : 0.170 Stream size : 620 MiB (90%) Audio #192 ID : 192 (0xC0) Format : MPEG Audio Format version : Version 1 Format profile : Layer 2 Duration : 49mn 16s Bit rate mode : Constant Bit rate : 128 Kbps Channel(s) : 2 channels Sampling rate : 44.1 KHz Resolution : 16 bits Stream size : 45.1 MiB (7%)


Трекер:  [ 31-Май-2018 21:01 ]

  

Скачать .torrent

Размер .torrent файла 14 KB


Размер: 693 MB
Хэш (hash) релиза: 7480d506301be3111481a33c3af09939a03aebe9
Подписка на обновления:

Еще никто не оставлял запись к записи скачать торрент Верхом на комете Off on a Comet . Будь первым!

!Обратная связь