The Sacred Cinema of Andrei Tarkovsky | Psychotronic Encyclopaedia of Film | Femme Fatale: Cinema's Most Unforgettable Lethal Ladies

Скачать через торрент музыку Суд Julgamento бесплатно без регистрации torrent

Статистика раздачи
Размер:  251 MB   |    Зарегистрирован:  24 дня   |    .torrent скачан:  26 раз   |   
Раздают:  1  
   
загрузка...
 
Автор Сообщение

Galfimbul

avatar Galfimbul


Суд / Julgamento (The Trial)

Жанр: Score
Композитор: Nuno Malo
Год выпуска диска: 2010
Год выпуска фильма: 2007
Производитель диска: Sweden
Издатель (лейбл): MovieScore Media
Номер по каталогу: MMS-10018

Аудиокодек: FLAC (*.flac)
Тип рипа: image+.cue
Битрейт аудио: lossless
Продолжительность: 49.45
Источник: собственный рип
Наличие сканов в содержимом раздачи: да (600 dpi)
01. Julgamento Prelude [04:45.37]
02. Frantic Chase [03:03.30]
03. At The Cemetery (Main Theme) [01:00.49]
04. The Torture Chamber [01:39.70]
05. Jaime's Theme [03:40.20]
06. Miguel's First Flashback [01:09.21]
07. Nightmare And Confession [04:04.03]
08. Jaime And Joana [06:02.04]
09. Joana's Shock [03:15.52]
10. Police Investigations [01:56.50]
11. The Open Fields [04:43.73]
12. Mendes Being Tortured [01:11.12]
13. The Courtroom [00:59.32]
14. Henrique And His Wife [01:46.01]
15. Catarina Searches [01:10.44]
16. Miguel's Second Flashback [00:55.28]
17. Final Confrontation [03:23.62]
18. End Title: Julgamento [03:17.29]
19. Trailer [01:39.72]
Exact Audio Copy V1.3 from 2. September 2016

EAC extraction logfile from 17. January 2017, 14:33

Nuno Malo / Julgamento

Used drive : TSSTcorpCDDVDW SH-S202H Adapter: 1 ID: 0

Read mode : SecureUtilize accurate stream : YesDefeat audio cache : YesMake use of C2 pointers : No

Read offset correction : 6Overread into Lead-In and Lead-Out : NoFill up missing offset samples with silence : YesDelete leading and trailing silent blocks : NoNull samples used in CRC calculations : YesUsed interface : Native Win32 interface for Win NT & 2000

Used output format : Internal WAV RoutinesSample format : 44.100 Hz; 16 Bit; Stereo

TOC of the extracted CD

Track | Start | Length | Start sector | End sector --------------------------------------------------------- 1 | 0:00.00 | 4:45.37 | 0 | 21411 2 | 4:45.37 | 3:03.30 | 21412 | 35166 3 | 7:48.67 | 1:00.49 | 35167 | 39715 4 | 8:49.41 | 1:39.70 | 39716 | 47210 5 | 10:29.36 | 3:40.20 | 47211 | 63730 6 | 14:09.56 | 1:09.21 | 63731 | 68926 7 | 15:19.02 | 4:04.03 | 68927 | 87229 8 | 19:23.05 | 6:02.04 | 87230 | 114383 9 | 25:25.09 | 3:15.52 | 114384 | 129060 10 | 28:40.61 | 1:56.50 | 129061 | 137810 11 | 30:37.36 | 4:43.73 | 137811 | 159108 12 | 35:21.34 | 1:11.12 | 159109 | 164445 13 | 36:32.46 | 0:59.32 | 164446 | 168902 14 | 37:32.03 | 1:46.01 | 168903 | 176853 15 | 39:18.04 | 1:10.44 | 176854 | 182147 16 | 40:28.48 | 0:55.28 | 182148 | 186300 17 | 41:24.01 | 3:23.62 | 186301 | 201587 18 | 44:47.63 | 3:17.29 | 201588 | 216391 19 | 48:05.17 | 1:39.72 | 216392 | 223888

Range status and errors

Selected range

Filename D:\Nuno Malo - Julgamento\Nuno Malo - Julgamento.wav

Peak level 97.8 % Extraction speed 7.4 X Range quality 100.0 % Test CRC C4C8ED51 Copy CRC C4C8ED51 Copy OK

No errors occurred

AccurateRip summary

Track 1 not present in databaseTrack 2 not present in databaseTrack 3 not present in databaseTrack 4 not present in databaseTrack 5 not present in databaseTrack 6 not present in databaseTrack 7 not present in databaseTrack 8 not present in databaseTrack 9 not present in databaseTrack 10 not present in databaseTrack 11 not present in databaseTrack 12 not present in databaseTrack 13 not present in databaseTrack 14 not present in databaseTrack 15 not present in databaseTrack 16 not present in databaseTrack 17 not present in databaseTrack 18 not present in databaseTrack 19 not present in database

None of the tracks are present in the AccurateRip database

End of status report

==== Log checksum 11E27321C0DA17C103C0C31132C3E9FDD4B1F0A812DF8305F01ED81CBFB69BCD ====
Премьера музыки к португальскому фильму-триллер Суд от молодого, но уже хорошо себя зарекомендовавшего композитора Нуну Мало.



Трекер:  [ 31-Май-2018 20:06 ]

  

Скачать .torrent

Размер .torrent файла 20 KB


Размер: 251 MB
Хэш (hash) релиза: 793159fe87da5a6ccac35d6f9ba3a494596da009

Торренты, похожие на Суд Julgamento скачать торрент

Форум Название Автор Размер S L Добавлен
Саундтреки к фильмам и мультфильмам (mp3) ·· (Score) Суд / Julgamento (The Trial) (by Nuno Malo) - 2010 (2007), MP3, 320 kbps Galfimbul 119511948114 MB 0 0 1527786374

20:06

31-Май-18

Еще никто не оставлял запись к записи скачать торрент Суд Julgamento . Будь первым!

!Обратная связь