Adulthood 2008 DVDRip H264 AC3 DTRG | New Party Flyer Collection Template 2012 PSD Pack 8 | Alan Wake Collectors Edition v1.03.16.482 5 2 DLC 2012 Multi2 RePack by RG UniGamers

Скачать через торрент музыку Ода Билли Джо Ode To Billy Joe бесплатно без регистрации torrent

Статистика раздачи
Размер:  170 MB   |    Зарегистрирован:  25 дней   |    .torrent скачан:  28 раз   |   
Раздают:  1  
   
загрузка...
 
Автор Сообщение

Galfimbul

avatar Galfimbul


Ода Билли Джо / Ode To Billy Joe

Жанр: Score
Композитор: Michel Legrand
Год выпуска диска: 2017
Год выпуска фильма: 1976
Производитель диска: USA
Издатель (лейбл): Kritzerland
Номер по каталогу: KR20031-0

Аудиокодек: FLAC (*.flac)
Тип рипа: image+.cue
Битрейт аудио: lossless
Продолжительность: 31.42
Источник: собственный рип
Наличие сканов в содержимом раздачи: да (600 dpi)

Треклист
01. Ode To Billy Joe - Main Title [04:24.52]
written & performed by Bobbie Gentry
02. By The Pond [02:21.64]
03. On The Bridge [02:40.27]
04. Night [03:41.23]
05. Reflections [01:32.62]
06. Morning Stillness [03:12.06]
07. There'll Be Time (Love Theme) [02:20.23]
08. Magnolia Turn-Around [01:46.06]
written by Thurman Box
09. Rattle Snake Daddy [02:09.46]
written by Hoyt Ming
10. Standing Pine Breakdown [02:43.59]
written by Morgan Gilmer
11. Memphis Thelma [02:34.23]
written by Sherrill Parks
12. Ode To Billy Joe - End Title (Instrumental Version) [02:15.06]
Exact Audio Copy V1.3 from 2. September 2016

EAC extraction logfile from 24. June 2017, 9:42

Michel Legrand / Ode To Billy Joe

Used drive : TSSTcorpCDDVDW SH-S202H Adapter: 1 ID: 0

Read mode : SecureUtilize accurate stream : YesDefeat audio cache : YesMake use of C2 pointers : No

Read offset correction : 6Overread into Lead-In and Lead-Out : NoFill up missing offset samples with silence : YesDelete leading and trailing silent blocks : NoNull samples used in CRC calculations : YesUsed interface : Native Win32 interface for Win NT & 2000

Used output format : Internal WAV RoutinesSample format : 44.100 Hz; 16 Bit; Stereo

TOC of the extracted CD

Track | Start | Length | Start sector | End sector --------------------------------------------------------- 1 | 0:00.00 | 4:24.52 | 0 | 19851 2 | 4:24.52 | 2:21.64 | 19852 | 30490 3 | 6:46.41 | 2:40.27 | 30491 | 42517 4 | 9:26.68 | 3:41.23 | 42518 | 59115 5 | 13:08.16 | 1:32.62 | 59116 | 66077 6 | 14:41.03 | 3:12.06 | 66078 | 80483 7 | 17:53.09 | 2:20.23 | 80484 | 91006 8 | 20:13.32 | 1:46.06 | 91007 | 98962 9 | 21:59.38 | 2:09.46 | 98963 | 108683 10 | 24:09.09 | 2:43.59 | 108684 | 120967 11 | 26:52.68 | 2:34.23 | 120968 | 132540 12 | 29:27.16 | 2:15.06 | 132541 | 142671

Range status and errors

Selected range

Filename D:\Michel Legrand - Ode To Billy Joe\Michel Legrand - Ode To Billy Joe.wav

Peak level 96.7 % Extraction speed 2.5 X Range quality 100.0 % Test CRC 30D145B7 Copy CRC 30D145B7 Copy OK

No errors occurred

AccurateRip summary

Track 1 not present in databaseTrack 2 not present in databaseTrack 3 not present in databaseTrack 4 not present in databaseTrack 5 not present in databaseTrack 6 not present in databaseTrack 7 not present in databaseTrack 8 not present in databaseTrack 9 not present in databaseTrack 10 not present in databaseTrack 11 not present in databaseTrack 12 not present in database

None of the tracks are present in the AccurateRip database

End of status report

==== Log checksum 91764A9AD15781AC9DC683EA78F1FF6C63078A5AFB03863B9DBC98FC5168265F ====
Вниманию почтенной публики предлагается первое издание на CD музыки к фильму, который необычен тем, что является экранизацией... песни!
В 1967 году Бобби Джентри написала песню про трагическую гибель молодого парня. Изначальную версию сократили, в результате чего песня получила даже определенный налет таинственности.
Спустя 9 лет со словами "основано на песне и реальных событиях" был выпущен фильм.
Там было много кантри-музыки, собственно и саму балладу переиздали (треки 1, 8-11). А вот с остальной музыкой было все ой как не просто! Писать ее доверили самому Мишелю Леграну!
Композитор, в общем-то, не был новичком в написании небольших монотематических саундтреков (за 17 минут музыки к фильму Лето 42-го он получил Оскара). Что называется, собственно музыки в фильме не так и много, но точно к месту.
Да и что это за музыка - нас ждут 16 минут "эталонного" Леграна - с великолепной темой, шикарной и необычной оркестровкой... В общем - если не любите кантри - пропускайте вышеозначенные треки, и слушайте только Леграна (хотя, положа рука на сердце, стоит отметить, что подобранные песни вовсе не так и плохи, так что дайте им шанс тоже <img class="smile" src="//static.t-ru.org/smiles/icon_mrgreen.gif" alt=""> )



Трекер:  [ 31-Май-2018 19:36 ]

  

Скачать .torrent

Размер .torrent файла 14 KB


Размер: 170 MB
Хэш (hash) релиза: 49ecdbe5c80371dfb9fc2edd730fb38b7d53ab1d

Торренты, похожие на Ода Билли Джо Ode To Billy Joe скачать торрент

Форум Название Автор Размер S L Добавлен
Саундтреки к фильмам и мультфильмам (mp3) ·· (Score) Ода Билли Джо / Ode To Billy Joe (by Michel Legrand) - 2017 (1976), MP3, 320 kbps Galfimbul 7618458973 MB 0 0 1527784582

19:36

31-Май-18

Еще никто не оставлял запись к записи скачать торрент Ода Билли Джо Ode To Billy Joe . Будь первым!

!Обратная связь