Sora yori mo Tooi Basho | Spy Thriller | Season 1 Episode 6 Episode 6

Скачать через торрент Крейг из царства Ручья Craig of the Creek Фильм бесплатно в хорошем качестве torrent

Скачивайте на UnionPeer.org фильмы через торрент без регистрации. Новинки кино в хорошем качестве через торрент. На UnionPeer.org можно скачать через торрент фильмы 2014 и 2015 годов. Самые новые фильмы.

Скачать торрент Крейг из царства Ручья Craig of the Creek бесплатно через .torrent фильм мультфильм сериал

Статистика раздачи
Размер:  744 MB   |    Зарегистрирован:  24 дня   |    .torrent скачан:  25 раз   |   
Раздают:  1  
   
загрузка...
 
Автор Сообщение

Galfimbul

avatar Galfimbul


Крейг из царства Ручья / Craig of the Creek

Страна: США
Жанр: комедия, приключения, семейный
Продолжительность серии: ~ 11мин
Год выпуска: 2018
Перевод: Любительский (двухголосый закадровый) NewStation
Русские субтитры: нет

Режиссёр: Мэтт Барнетт, Бен Левин / Matt Burnett, Ben Levin
Роли озвучивали: Дхарма Браун, Майкл Кронер, Карен Фукухара, Джорджина Кордова, Фил ЛаМарр, Филип Соломон

Описание: Мультсериал «Крейг из царства Ручья» расскажет о невероятных приключениях мальчика Крейга и его двух друзей - Келси и Джей Пи, которые благодаря своей неуемной фантазии устраивают нереально интересные игры в устье высохшего ручья.

Доп. информация: без рекламы

Предыдущие и альтернативные раздачи
Семпл: http://multi-up.com/1200095

Качество: WEBRip 1080р
Формат: MKV
Видео: AVC, 1920x1080, 16:9, 29.970 кадров/сек, ~4275 Кбит/сек
Аудио #1: [RUS] 48 kHz, AC-3, 2ch, ~256 kbps
Аудио #2: [ENG] 44 kHz, AAC, 2ch, ~126 kbps
Субтитры: Английские
GeneralUnique ID : 330332962885030962512491053693044462913 (0xF883D082036077B523C777DC2ECF1541)Complete name : D:\NewStation\Craig.of.the.Creek.s01.WEBRip.1080p.NewStation\Craig.of.the.Creek.S01E01.WEBRip.1080p.NewStation.mkvFormat : MatroskaFormat version : Version 4 / Version 2File size : 367 MiBDuration : 11 min 0 sOverall bit rate : 4 660 kb/sEncoded date : UTC 2018-05-28 10:22:35Writing application : mkvmerge v19.0.0 ('Brave Captain') 64-bitWriting library : libebml v1.3.5 + libmatroska v1.4.8

VideoID : 1Format : AVCFormat/Info : Advanced Video CodecFormat profile : [email protected] settings : CABAC / 4 Ref FramesFormat settings, CABAC : YesFormat settings, RefFrames : 4 framesCodec ID : V_MPEG4/ISO/AVCDuration : 11 min 0 sBit rate : 4 275 kb/sNominal bit rate : 4 500 kb/sWidth : 1 920 pixelsHeight : 1 080 pixelsDisplay aspect ratio : 16:9Frame rate mode : ConstantFrame rate : 29.970 (30000/1001) FPSColor space : YUVChroma subsampling : 4:2:0Bit depth : 8 bitsScan type : ProgressiveBits/(Pixel*Frame) : 0.069Stream size : 337 MiB (92%)Writing library : x264 core 148 r236 a01e339Encoding settings : cabac=1 / ref=1 / deblock=1:0:0 / analyse=0x3:0x113 / me=hex / subme=2 / psy=1 / psy_rd=1.00:0.00 / mixed_ref=0 / me_range=16 / chroma_me=1 / trellis=0 / 8x8dct=1 / cqm=0 / deadzone=21,11 / fast_pskip=1 / chroma_qp_offset=0 / threads=34 / lookahead_threads=8 / sliced_threads=0 / nr=0 / decimate=1 / interlaced=0 / bluray_compat=0 / constrained_intra=0 / bframes=2 / b_pyramid=2 / b_adapt=0 / b_bias=0 / direct=1 / weightb=1 / open_gop=0 / weightp=1 / keyint=60 / keyint_min=6 / scenecut=0 / intra_refresh=0 / rc_lookahead=10 / rc=2pass / mbtree=1 / bitrate=4500 / ratetol=1.0 / qcomp=0.60 / qpmin=0 / qpmax=69 / qpstep=4 / cplxblur=20.0 / qblur=0.5 / vbv_maxrate=4500 / vbv_bufsize=4500 / nal_hrd=none / filler=0 / ip_ratio=1.40 / aq=1:1.00Language : EnglishDefault : YesForced : No

Audio #1ID : 2Format : AC-3Format/Info : Audio Coding 3Codec ID : A_AC3Duration : 11 min 0 sBit rate mode : ConstantBit rate : 256 kb/sChannel(s) : 2 channelsChannel positions : Front: L RSampling rate : 48.0 kHzFrame rate : 31.250 FPS (1536 SPF)Bit depth : 16 bitsCompression mode : LossyStream size : 20.1 MiB (5%)Title : NewStationLanguage : RussianService kind : Complete MainDefault : YesForced : No

Audio #2ID : 3Format : AACFormat/Info : Advanced Audio CodecFormat profile : LCCodec ID : A_AAC-2Duration : 11 min 0 sBit rate : 126 kb/sChannel(s) : 2 channelsChannel positions : Front: L RSampling rate : 44.1 kHzFrame rate : 43.066 FPS (1024 SPF)Compression mode : LossyStream size : 9.89 MiB (3%)Title : OriginalDefault : NoForced : No

TextID : 4Format : UTF-8Codec ID : S_TEXT/UTF8Codec ID/Info : UTF-8 Plain TextDuration : 10 min 59 sBit rate : 144 b/sCount of elements : 289Stream size : 11.6 KiB (0%)Title : CCLanguage : EnglishDefault : NoForced : No


Трекер:  [ 31-Май-2018 18:24 ]

  

Скачать .torrent

Размер .torrent файла 15 KB


Размер: 744 MB
Хэш (hash) релиза: 4d87086854b721a799a92d49a1d7f569b73aa7ec
Подписка на обновления:

Еще никто не оставлял запись к записи скачать торрент Крейг из царства Ручья Craig of the Creek . Будь первым!

!Обратная связь