Der Sockengolf-Champion Big Flappy Bastards | Great Rail Restorations S01E01 480p x264-mSD 45 minutes | Musica 2015

Скачать через торрент Бэтмен-ниндзя Batman Ninja бесплатно Аниме Все серии на русском torrent

Статистика раздачи
Размер:  7.57 GB   |    Зарегистрирован:  1 месяц 16 дней   |    .torrent скачан:  34 раза   |   
Раздают:  1  
   
загрузка...
 
Автор Сообщение

Galfimbul

avatar Galfimbul


Бэтмен-ниндзя
Страна:
Год выпуска: 2018
Жанр: экшн, боевые искусства, самураи, приключения
Тип: Movie
Продолжительность: 85 мин.
Режиссер: Мидзусаки Дзюнпэй
Студия:


Многоголосая авторская озвучка от:
Yu, Leonhart, Chirick, Daniel, Derenn (муж.)
VereneyR, Nari, Murrzik (жен.)

Описание: Горилла Гродд, заклятый противник Бэтмена, создаёт машину перемещения во времени и с её помощью закидывает Тёмного Рыцаря, включая некоторых его союзников и многих злейших врагов, во времена феодальной Японии. Там его враги принимают на себя роли феодальных вассалов с Джокером во главе угла. Привычные высокотехнологичные гаджеты Бэтмена становятся здесь бесполезны, поэтому ему придётся полагаться лишь на свой ум и союзников, включая Женщину-кошку и увеличившуюся бэт-семью Брюса, чтобы восстановить в этих землях порядок и вернуться в родной современный Готэм.
©Nyase

Информационные ссылки: AniDB || World Art

<div class="post-box-default">
<div class="post-box">Качество: BDRip
Тип релиза: без хардсаба
Формат видео: MKV
Релиз/Автор рипа: Unknown
Совместимость с бытовыми плеерами: Нет
Видео: x264, 8 bit, 1920x1080, 10.5 Mb/s, 23.976 fps

Аудио:
1: AAC, 251 kbps, 48.0 KHz, stereo
2: AC-3, 448 kbps, 48.0 KHz, 5.1
3: DTS, 1 509 kbps, 48.0 KHz, 5.1

Субтитры:
1: ASS,(надписи);
2: ASS, (полные) [UGN SUBZ Translators];
3: ASS, (полные);

ВСЁ В ОДНОМ MKV КОНТЕЙНЕРЕ</div>
</div>
GeneralUnique ID : 287963304437173186088125989978981844677 (0xD8A3B71023CEE887A12D5F050618C6C5)Complete name : D:\Раздача\[AniPlague] Бэтмен-ниндзя [1080p].mkvFormat : MatroskaFormat version : Version 4 / Version 2File size : 7.57 GiBDuration : 1 h 25 minOverall bit rate : 12.7 Mb/sMovie name : [AniPlague] Бэтмен-ниндзя [1080p]Encoded date : UTC 2018-05-29 10:46:46Writing application : mkvmerge v21.0.0 ('Tardigrades Will Inherit The Earth') 64-bitWriting library : libebml v1.3.5 + libmatroska v1.4.8Attachments : v_CCSplashdown_v1.0.ttf / v_DeathRattleBB_v1.0.ttf / v_MechEffects2BB_v1.0.ttf / v_Reggae_v1.0.ttf / v_BucketOBlood_v1.2.ttf

VideoID : 1Format : AVCFormat/Info : Advanced Video CodecFormat profile : [email protected] settings : CABAC / 5 Ref FramesFormat settings, CABAC : YesFormat settings, ReFrames : 5 framesCodec ID : V_MPEG4/ISO/AVCDuration : 1 h 25 minBit rate : 10.5 Mb/sWidth : 1 920 pixelsHeight : 1 080 pixelsDisplay aspect ratio : 16:9Frame rate mode : ConstantFrame rate : 23.976 (24000/1001) FPSColor space : YUVChroma subsampling : 4:2:0Bit depth : 8 bitsScan type : ProgressiveBits/(Pixel*Frame) : 0.211Stream size : 6.26 GiB (83%)Title : Batman.Ninja.2018.1080p.BluRay.x264.DTS-MTWriting library : x264 core 155 r2901 7d0ff22Encoding settings : cabac=1 / ref=5 / deblock=1:-3:-3 / analyse=0x3:0x113 / me=umh / subme=10 / psy=1 / psy_rd=1.05:0.10 / mixed_ref=1 / me_range=48 / chroma_me=1 / trellis=2 / 8x8dct=1 / cqm=0 / deadzone=21,11 / fast_pskip=0 / chroma_qp_offset=-2 / threads=12 / lookahead_threads=1 / sliced_threads=0 / nr=0 / decimate=1 / interlaced=0 / bluray_compat=0 / constrained_intra=0 / bframes=6 / b_pyramid=2 / b_adapt=2 / b_bias=0 / direct=3 / weightb=1 / open_gop=0 / weightp=2 / keyint=250 / keyint_min=23 / scenecut=40 / intra_refresh=0 / rc=2pass / mbtree=0 / bitrate=10510 / ratetol=2.0 / qcomp=0.70 / qpmin=0 / qpmax=69 / qpstep=4 / cplxblur=20.0 / qblur=0.5 / ip_ratio=1.40 / pb_ratio=1.30 / aq=3:1.00Default : YesForced : No

Audio #1ID : 2Format : AACFormat/Info : Advanced Audio CodecFormat profile : LCCodec ID : A_AAC-2Duration : 1 h 25 minBit rate : 251 kb/sChannel(s) : 2 channelsChannel positions : Front: L RSampling rate : 48.0 kHzFrame rate : 46.875 FPS (1024 SPF)Compression mode : LossyStream size : 153 MiB (2%)Title : AniPlagueLanguage : RussianDefault : YesForced : Yes

Audio #2ID : 3Format : AC-3Format/Info : Audio Coding 3Codec ID : A_AC3Duration : 1 h 25 minBit rate mode : ConstantBit rate : 448 kb/sChannel(s) : 6 channelsChannel positions : Front: L C R, Side: L R, LFESampling rate : 48.0 kHzFrame rate : 31.250 FPS (1536 SPF)Bit depth : 16 bitsCompression mode : LossyStream size : 273 MiB (4%)Title : OriginalLanguage : JapaneseService kind : Complete MainDefault : NoForced : Yes

Audio #3ID : 4Format : DTSFormat/Info : Digital Theater SystemsCodec ID : A_DTSDuration : 1 h 25 minBit rate mode : ConstantBit rate : 1 509 kb/sChannel(s) : 6 channelsChannel positions : Front: L C R, Side: L R, LFESampling rate : 48.0 kHzFrame rate : 93.750 FPS (512 SPF)Bit depth : 24 bitsCompression mode : LossyStream size : 920 MiB (12%)Title : DUB_ENGLanguage : EnglishDefault : NoForced : No

Text #1ID : 5Format : ASSCodec ID : S_TEXT/ASSCodec ID/Info : Advanced Sub Station AlphaDuration : 1 h 20 minBit rate : 5 b/sCount of elements : 33Compression mode : LosslessStream size : 3.49 KiB (0%)Title : ForcedLanguage : RussianDefault : YesForced : Yes

Text #2ID : 6Format : UTF-8Codec ID : S_TEXT/UTF8Codec ID/Info : UTF-8 Plain TextDuration : 1 h 21 minBit rate : 85 b/sCount of elements : 873Stream size : 51.4 KiB (0%)Title : UGN SUBZ TranslatorsLanguage : RussianDefault : NoForced : No

Text #3ID : 7Format : UTF-8Codec ID : S_TEXT/UTF8Codec ID/Info : UTF-8 Plain TextDuration : 1 h 24 minBit rate : 45 b/sCount of elements : 880Stream size : 28.3 KiB (0%)Language : EnglishDefault : NoForced : No

Menu00:00:00.000 : en:00:00:00.00000:08:32.345 : en:00:08:32.34500:22:30.683 : en:00:22:30.68300:31:12.537 : en:00:31:12.53700:42:46.689 : en:00:42:46.68900:51:34.425 : en:00:51:34.42501:01:01.449 : en:01:01:01.44901:12:15.831 : en:01:12:15.83101:20:28.657 : en:01:20:28.657
...5553388 - BDRip, 1080p, наличие озвучки


Трекер:  [ 31-Май-2018 17:01 ]

  

Скачать .torrent

Размер .torrent файла 19 KB


Размер: 7.57 GB
Хэш (hash) релиза: a4ff7816aff480cf43eded3b4e38f70079010fc8
Подписка на обновления:

Торренты, похожие на Бэтмен-ниндзя Batman Ninja скачать торрент

Форум Название Автор Размер S L Добавлен
Аниме | HD Rips ·· Бэтмен Ниндзя / Batman Ninja / Ninja Battoman [Movie] [Без хардсаба] [ENG, SUB] [2018, Анимация, Экшн, BDRip] [720p] Galfimbul 27999446132.61 GB 0 0 1524681035

21:30

25-Апр-18

Аниме | Rips ·%· Бэтмен-ниндзя / Batman Ninja [Movie] [Без хардсаба] [RUS(int), ENG, JAP, SUB] [2018, экшн, боевые искусства, самураи, приключения, BDRip] [1080p] Galfimbul 30371308292.83 GB 0 0 1528885809

13:30

13-Июн-18

Еще никто не оставлял запись к записи скачать торрент Бэтмен-ниндзя Batman Ninja . Будь первым!

!Обратная связь