Honglei Sun | Full Strike | Kakegurui: Das Leben ist ein Spiel

Скачать через торрент Танки Фильм бесплатно в хорошем качестве torrent

Скачивайте на UnionPeer.org фильмы через торрент без регистрации. Новинки кино в хорошем качестве через торрент. На UnionPeer.org можно скачать через торрент фильмы 2014 и 2015 годов. Самые новые фильмы.

Скачать торрент Танки бесплатно через .torrent фильм мультфильм сериал

Статистика раздачи
Размер:  3.19 GB   |    Зарегистрирован:  24 дня   |    .torrent скачан:  155 раз   |   
Раздают:  1  
   
загрузка...
 
Автор Сообщение

Galfimbul

avatar Galfimbul


Танки

Страна: Россия
Студия: Медиа-Трест
Жанр: приключения, история, военный
Год выпуска: 2018
Продолжительность: 01:33:13

Перевод: Не требуется
Субтитры: нет
Оригинальная аудиодорожка: русский

Режиссёр: Ким Дружинин

В ролях: Андрей Мерзликин, Аглая Тарасова, Александр Тютин, Сергей Стукалов, Антон Филипенко, Алексей Овсянников, Сергей Четвертков, Николай Горшков, Дмитрий Поднозов ,Юрий Ицков
Описание: На пороге войны с фашистской Германией инженер Михаил Кошкин разрабатывает прототип нового инновационного танка Т-34. Чтобы доказать уникальность боевой машины, Кошкин и его команда отправляются в Москву на танках своим ходом. Но вскоре пробег превращается в непредсказуемую гонку, где бездорожье лишь меньшее из зол… Пройдя череду опасных приключений и благодаря безупречным техническим и боевым качествам новых танков, героям удается одержать верх над преследователями и доказать превосходство Т-34.

Sample

Тип релиза: WEB-DL 1080p
Контейнер: MKV

Видео: MPEG4 AVC Video, H264, 1908x848, 23.976 fps, 4512 kbps
Аудио: Russian (AC3, 6 ch, 384 kbps, 16 bits, 48.0 KHz) - оригинал
General
Unique ID : 178313284530572212347982102171218170819 (0x8625E3B0C3750955A0ACE75DF5A553C3)
Complete name : D:\Танки 2018 WEB-DL 1080p.mkv
Format : Matroska
Format version : Version 2
File size : 3.19 GiB
Duration : 1 h 33 min
Overall bit rate : 4 898 kb/s
Encoded date : UTC 2018-05-30 18:36:39
Writing application : mkvmerge v8.3.0 ('Over the Horizon') 64bit
Writing library : libebml v1.3.1 + libmatroska v1.4.2

Video
ID : 1
Format : AVC
Format/Info : Advanced Video Codec
Format profile : [email protected]
Format settings : CABAC / 5 Ref Frames
Format settings, CABAC : Yes
Format settings, ReFrames : 5 frames
Codec ID : V_MPEG4/ISO/AVC
Duration : 1 h 33 min
Bit rate : 4 512 kb/s
Width : 1 908 pixels
Height : 848 pixels
Display aspect ratio : 2.25:1
Frame rate mode : Constant
Frame rate : 23.976 (24000/1001) FPS
Color space : YUV
Chroma subsampling : 4:2:0
Bit depth : 8 bits
Scan type : Progressive
Bits/(Pixel*Frame) : 0.116
Stream size : 2.94 GiB (92%)
Language : English
Default : Yes
Forced : No
Color range : Limited
Color primaries : BT.709
Transfer characteristics : BT.709
Matrix coefficients : BT.709

Audio
ID : 2
Format : AC-3
Format/Info : Audio Coding 3
Codec ID : A_AC3
Duration : 1 h 33 min
Bit rate mode : Constant
Bit rate : 384 kb/s
Channel(s) : 6 channels
Channel positions : Front: L C R, Side: L R, LFE
Sampling rate : 48.0 kHz
Frame rate : 31.250 FPS (1536 SPF)
Bit depth : 16 bits
Compression mode : Lossy
Stream size : 256 MiB (8%)
Language : Russian
Service kind : Complete Main
Default : Yes
Forced : No


Трекер:  [ 31-Май-2018 15:01 ]

  

Скачать .torrent

Размер .torrent файла 16 KB


Размер: 3.19 GB
Хэш (hash) релиза: eb80243a3bd86ccccae385aca9448ffe2356058d
Подписка на обновления:

Торренты, похожие на Танки скачать торрент

Форум Название Автор Размер S L Добавлен
Мультфильмы до 2016 ·· Царевич и тайна волшебной лягушки / Царевич та таємниця чарівної жабки (Наталия Скрябина) [2010, Украина, мультфильм, WEBRip] Galfimbul 4994767048 MB 0 0 1523626235

16:30

13-Апр-18

Спорт ·· Х Всемирные игры 2017 во Вроцлаве / Муай тай / Мужчины / Финалы / UA:Перший [30/07/2017, Муай тай, DVBRip, XviD, UA] Galfimbul 913322046871 MB 0 0 1501480062

08:47

31-Июл-17

Развлекательные телепередачи и шоу ·· Лесь Подерв'янський (Подерев'янський / Подеревянский) "Блєск та ніщєта підарасів" [2006, сатира / юмор, DVDRip] Galfimbul 732001514698 MB 0 0 1499896065

00:47

13-Июл-17

Документальные фильмы и телепередачи ·· Танки Второй мировой войны (2 серии из 2) (Андрей Кулясов) [2013, Документальный, танки, вооружение, история, WEBRip-AVC (576p)] Galfimbul 15516965121.45 GB 0 0 1497032168

21:16

9-Июн-17

Документальные фильмы и телепередачи ·· Танки: гонка технологий [2009, Документальный, танки, война, история, TVRip] Galfimbul 319498240305 MB 0 0 1430467427

11:03

1-Май-15

Документальные фильмы и телепередачи ·· Танки Второй Мировой войны (2 серии из 2) (Андрей Кулясов) [2013, Документальный, история, танки, DVD5] Galfimbul 42812088323.99 GB 0 0 1424615823

17:37

22-Фев-15

Документальные фильмы и телепередачи ·· Танки Второй Мировой войны (2 серии из 2) (Андрей Кулясов) [2013, Документальный, история, танки, вооружение, DVDRip] Galfimbul 11513630721.07 GB 0 0 1424433962

15:06

20-Фев-15

Документальные фильмы и телепередачи ·· Самые необычные танки в истории (3 серии из 3) [2014, Документальный, вооружение,танки, история, HDTVRip] Galfimbul 561270784535 MB 0 0 1421179977

23:12

13-Янв-15

Документальные фильмы и телепередачи ·· Самые необычные танки в истории (3 серии из 3) [2014, Документальный, вооружение,танки, история, HDTVRip 720p] Galfimbul 756674474722 MB 0 0 1421179940

23:12

13-Янв-15

Зарубежные фильмы до 2016 ·· Секреты Тай Чи / Мастер Тай Чи / Secret of Tai Chi / Tai Chi Chun / Revenge of the Tai-Chi Master / Tai chi chuan (Ци Исюн / Chik Ngai-Hung) [1985, Гонконг, боевые искусства, VHSRip] AVO (Сергей Кузнецов) Galfimbul 14669701121.37 GB 0 0 1376857811

23:30

18-Авг-13

Российские фильмы до 2016 ·· Танки (Ким Дружинин) [2018, Россия, приключения, история, военный, WEB-DLRip] Galfimbul 779569152743 MB 0 0 1527789251

20:54

31-Май-18

Российские фильмы 2016-2018 (Новинки русского кино) ·· Танки (Ким Дружинин) [2018, приключения, история, военный, WEB-DL 720p] RUS [iTunes] Galfimbul 30760663872.86 GB 0 0 1527739120

06:58

31-Май-18

Российские фильмы 2016-2018 (Новинки русского кино) ·· Танки (Эндрю Никкол) [2018 г., приключения, история, военный, WEB-DLRip] | iTunes Galfimbul 14675496961.37 GB 0 0 1527739104

06:58

31-Май-18

Документальные фильмы и телепередачи ·· Мастерская танков - Пантера / Tank Overhaul - The Panther (Ellis Entertainment) [2007, Документальный, SATRip] Galfimbul 728909824695 MB 0 0 1526470583

14:36

16-Май-18

Мультфильмы до 2016 ·· Тачки 3 / Cars 3 (Брайан Фи / Brian Fee) [2017, США, Мультфильм, комедия, приключения, семейный, спорт, DVD9] R5 Dub + Sub Rus + Original Eng Galfimbul 68607610886.39 GB 0 0 1525613429

16:30

6-Май-18

Зарубежные сериалы ·· В объезд / Та еще поездка / The Detour / Сезон: 3 / Серии: 1-8 из 10 (Бреннан Шрофф, Джефф Томсич, Дэйл Штерн) [2018, США, комедия, WEBRip 720p] MVO (AMS) + Original Eng Galfimbul 1255886512411.7 GB 0 0 1522007296

22:48

25-Мар-18

Зарубежные сериалы ·· Та еще поездочка / The Detour / Сезон: 3 / Серии: 1-2 из 10 (Джефф Томсич, Стив Пинк, Бреннан Шрофф) [2018, США, комедия, роуд-сериал, WEB-DL 720p] MVO (Jaskier) + Original + Sub (Eng) Galfimbul 14144018271.32 GB 0 0 1518186269

17:24

9-Фев-18

Зарубежные сериалы ·· Та еще поездочка / The Detour / Сезон: 3 / Серии: 1-2 из 12 (Джефф Томсич, Стив Пинк, Бреннан Шрофф) [2018, США, комедия, роуд-сериал, WEB-DLRip] MVO (Jaskier) + Original Galfimbul 525262848501 MB 0 0 1518186193

17:23

9-Фев-18

3D Мультфильмы ·· Тачки 3 3D / Cars 3 3D (Брайан Фи / Brian Fee) [2017, США, мультфильм, комедия, приключения, семейный, спорт, Blu-ray 1080p] [EUR] DUB BD3D Galfimbul 3452272640032.15 GB 0 0 1517744207

14:36

4-Фев-18

Еще никто не оставлял запись к записи скачать торрент Танки . Будь первым!

!Обратная связь