Judge Dredd (1995) | Top New Games | Nickelodeon

Скачать через торрент КВН-2018. Высшая лига. Третья игра 14 финала Фильм бесплатно в хорошем качестве torrent

Скачивайте на UnionPeer.org фильмы через торрент без регистрации. Новинки кино в хорошем качестве через торрент. На UnionPeer.org можно скачать через торрент фильмы 2014 и 2015 годов. Самые новые фильмы.

Скачать торрент КВН-2018. Высшая лига. Третья игра 14 финала бесплатно через .torrent фильм мультфильм сериал

Статистика раздачи
Размер:  1.49 GB   |    Зарегистрирован:  26 дней   |    .torrent скачан:  30 раз   |   
Раздают:  1  
   
загрузка...
 
Автор Сообщение

Galfimbul

avatar Galfimbul


КВН-2018. Высшая лига. Третья игра 1/4 финала

Дата/Год выпуска: 2018
Страна: Россия
Продолжительность: 01:57:00
Жанр: Юмор
Перевод: Не требуется
Телеканал: Первый HD
Ведущий: Александр Масляков
В жюри: Семен Слепаков, Михаил Галустян, Валдис Пельш, Юлия Меньшова, Юлий Гусман.

Описание:
В третьей 1/4 Высшей лиги играют:
«Плюшки имени Ярослава Мудрого» (Тверь),
Сборная Великобритании (Лондон),
«Без консервантов» (Санкт-Петербург),
«Планета Сочи» (Сочи),
«НАТЕ» (ст. Брюховецкая, Краснодарский край).

качество: HDTVRip
формат: MKV
Видео: XVID, 704x400 (16:9), 25.000 fps, 1620 kbps
Аудио: MP3, 192 kbps, 48.0 KHz, 2 ch
GeneralComplete name : D:\Humor\KVN\KVN.(2018).3.1-4.Vyshaya liga HDTVRip.aviFormat : AVIFormat/Info : Audio Video InterleaveFile size : 1.49 GiBDuration : 1h 57mnOverall bit rate : 1 821 KbpsWriting application : VirtualDubMod 1.5.10.3 | www.virtualdub-fr.org || (build 2550/release)Writing library : VirtualDubMod build 2550/release

VideoID : 0Format : MPEG-4 VisualFormat profile : Advanced [email protected] settings, BVOP : 1Format settings, QPel : NoFormat settings, GMC : No warppointsFormat settings, Matrix : CustomCodec ID : XVIDCodec ID/Hint : XviDDuration : 1h 57mnBit rate : 1 620 KbpsWidth : 704 pixelsHeight : 400 pixelsDisplay aspect ratio : 16:9Frame rate : 25.000 fpsColor space : YUVChroma subsampling : 4:2:0Bit depth : 8 bitsScan type : ProgressiveCompression mode : LossyBits/(Pixel*Frame) : 0.230Stream size : 1.32 GiB (89%)Writing library : XviD 73

AudioID : 1Format : MPEG AudioFormat version : Version 1Format profile : Layer 3Codec ID : 55Codec ID/Hint : MP3Duration : 1h 57mnBit rate mode : ConstantBit rate : 192 KbpsChannel count : 2 channelsSampling rate : 48.0 KHzCompression mode : LossyStream size : 161 MiB (11%)Alignment : Aligned on interleavesInterleave, duration : 40 ms (1.00 video frame)Interleave, preload duration : 504 msWriting library : LAME3.99rEncoding settings : -m s -V 4 -q 0 -lowpass 18.6 -b 192


Трекер:  [ 30-Май-2018 19:42 ]

  

Скачать .torrent

Размер .torrent файла 15 KB


Размер: 1.49 GB
Хэш (hash) релиза: d9ae1d898b1ef2d7a1ecb0d5b814f675e6304a99
Подписка на обновления:

Еще никто не оставлял запись к записи скачать торрент КВН-2018. Высшая лига. Третья игра 14 финала . Будь первым!

!Обратная связь