Otome Youkai Zakuro | Taxing Love 2018 1080p BluRay x264-ROVERS[EtHD] | Privacy Policy

Скачать через торрент [iPad] Роман Израэл, Esq. Roman J. Israel, Esq. бесплатно русская версия torrent активатор

Статистика раздачи
Размер:  2.1 GB   |    Зарегистрирован:  26 дней   |    .torrent скачан:  18 раз   |   
Раздают:  1  
   
загрузка...
 
Автор Сообщение

Galfimbul

avatar Galfimbul


Роман Израэл, Esq. / Roman J. Israel, Esq.
«All rise»

6.272 / 10 6.40 / 10
Год выпуска: 2017
Страна: США
Жанр: Драма, криминал
Продолжительность: 02:02:20

Перевод: Многоголосый закадровый (Лицензия)
Оригинальная аудиодорожка: Есть
Cубтитры: Русские форсированные, Русские, Английские, Украинские
Режиссёр: Дэн Гилрой
Сценарий: Дэн Гилрой
Продюсер: Тодд Блэк, Майкл Блум, Джейсон Клот
Оператор: Роберт Элсвит
Композитор: Джеймс Ньютон Ховард
Художник: Кевин Кэвэно, Роберт В. Джозеф, Френсин Джеймисон-Танчук
Монтаж: Джон Гилрой
В ролях: Дензел Вашингтон, Колин Фаррелл, Кармен Эджого, Линда Граватт, Аманда Уоррен, Хьюго Армстронг, Сэм Гилрой, Тони Плана, Дерон Хортон, Амари Читом

Бюджет: $22 000 000
Сборы в США: $11 962 778
Сборы в мире: + $702 984 = $12 665 762

Мировая премьера: 10 сентября 2017

Описание: История опытного адвоката-идеалиста с твёрдой хваткой, Романа Дж. Израэля. Череда событий вынуждает героя пойти на крайние меры, противоречащие его профессиональным и моральным принципам.
Качество исходника: Blu-Ray (BlueBird)
Качество: BDRip
Тип: SD (576p)
Контейнер: M4V
Видео: H.264, 1024x560, 1.85:1, 2 200 Kbps, 23.976 fps

Аудио 1: Русский/Многоголосый закадровый (Лицензия), AAC / 2.0 / 128 Kbps / 48.0 KHz
Аудио 2: Английский/Оригинальная дорожка , AAC / 2.0 / 128 Kbps / 48.0 KHz

Субтитры 1: Русские форсированные
Субтитры 2: Русские полные
Субтитры 3: Английские полные
Субтитры 4: Украинские полные
Sort Name: Roman J. Israel, Esq.
XID: Apple:vendor_id:2017-1005831
contentID: 1309438073
Copyright: © 2017 Columbia Pictures Industries, Inc., CCP Inner City Film Holdings, LLC, Macro Content Fund I, LLC, Bron Creative Corp. and IN Splitter, L.P. All Rights Reserved.
Screenwriters: Дэн Гилрой
Producers: Тодд Блэк, Майкл Блум, Джейсон Клот
Director: Дэн Гилрой
Cast: Дензел Вашингтон, Колин Фаррелл, Кармен Эджого, Линда Граватт, Аманда Уоррен, Хьюго Армстронг, Сэм Гилрой, Тони Плана, Дерон Хортон, Амари Читом
Studio: Bron Studios
Rating Annotation: Rated PG-13 for language and some violence.
Rating: 4
Long Description: История опытного адвоката-идеалиста с твёрдой хваткой, Романа Дж. Израэля. Череда событий вынуждает героя пойти на крайние меры, противоречащие его профессиональным и моральным принципам.
Description: История опытного адвоката-идеалиста с твёрдой хваткой, Романа Дж. Израэля. Череда событий вынуждает героя пойти на крайние меры, противоречащие его профессиональным и моральным принципам.
Release Date: 2017-09-10T08:00:00Z
Genre: Thriller
Artist: Dan Gilroy
Name: Roman J. Israel, Esq.
General
Complete name : /Users/imac/HandBrake/Roman.J.Israel.Esq.(SD).(pk).m4v
Format : MPEG-4
Codec ID : M4V
File size : 2.10 GiB
Duration : 2h 2mn
Overall bit rate mode : Variable
Overall bit rate : 2 458 Kbps
Movie name : Roman J. Israel, Esq.
Performer : Dan Gilroy
Director : Дэн Гилрой
Actor : Дензел Вашингтон / Колин Фаррелл / Кармен Эджого / Линда Граватт / Аманда Уоррен / Хьюго Армстронг / Сэм Гилрой / Тони Плана / Дерон Хортон / Амари Читом
Screenplay by : Дэн Гилрой
Producer : Тодд Блэк / Майкл Блум / Джейсон Клот
Production studio : Bron Studios
Genre : Thriller
ContentType : Short Film
Description : История опытного адвоката-идеалиста с твёрдой хваткой, Романа Дж. Израэля. Череда событий вынуждает героя пойти на крайние меры, противоречащие его профессиональным и моральным принципам.
Recorded date : UTC 2017-09-10 08:00:00
Encoded date : UTC 2018-05-30 09:59:54
Tagged date : UTC 2018-05-30 10:01:00
Copyright : © 2017 Columbia Pictures Industries, Inc., CCP Inner City Film Holdings, LLC, Macro Content Fund I, LLC, Bron Creative Corp. and IN Splitter, L.P. All Rights Reserved.
Cover : Yes
Rating : None
Title/Sort : Roman J. Israel, Esq.
LongDescription : История опытного адвоката-идеалиста с твёрдой хваткой, Романа Дж. Израэля. Череда событий вынуждает героя пойти на крайние меры, противоречащие его профессиональным и моральным принципам.
AppleStoreCatalogID : 1309438073
Vendor : Apple:vendor_id:2017-1005831
ContentRating : mpaa|PG-13|300|Rated PG-13 for language and some violence.

Video #1
ID : 1
Format : AVC
Format/Info : Advanced Video Codec
Format profile : [email protected]
Format settings, CABAC : Yes
Format settings, ReFrames : 9 frames
Codec ID : avc1
Codec ID/Info : Advanced Video Coding
Duration : 2h 2mn
Source duration : 2h 2mn
Bit rate : 2 200 Kbps
Width : 1 024 pixels
Height : 560 pixels
Display aspect ratio : 1.85:1
Frame rate mode : Variable
Frame rate : 23.976 fps
Minimum frame rate : 23.974 fps
Maximum frame rate : 23.981 fps
Color space : YUV
Chroma subsampling : 4:2:0
Bit depth : 8 bits
Scan type : Progressive
Bits/(Pixel*Frame) : 0.160
Stream size : 1.88 GiB (89%)
Source stream size : 1.88 GiB (89%)
Title : Main Program
Writing library : x264 core 155 r2893 b00bcaf
Encoding settings : cabac=1 / ref=9 / deblock=1:0:0 / analyse=0x3:0x113 / me=umh / subme=9 / psy=1 / psy_rd=1.00:0.00 / mixed_ref=1 / me_range=32 / chroma_me=1 / trellis=1 / 8x8dct=1 / cqm=0 / deadzone=21,11 / fast_pskip=1 / chroma_qp_offset=-2 / threads=17 / lookahead_threads=1 / sliced_threads=0 / nr=0 / decimate=1 / interlaced=0 / bluray_compat=0 / constrained_intra=0 / bframes=6 / b_pyramid=2 / b_adapt=2 / b_bias=0 / direct=1 / weightb=1 / open_gop=0 / weightp=2 / keyint=240 / keyint_min=24 / scenecut=40 / intra_refresh=0 / rc_lookahead=40 / rc=2pass / mbtree=1 / bitrate=2200 / ratetol=1.0 / qcomp=0.60 / qpmin=0 / qpmax=69 / qpstep=4 / cplxblur=20.0 / qblur=0.5 / ip_ratio=1.40 / aq=1:1.00
Language : English
Encoded date : UTC 2018-05-30 09:59:54
Tagged date : UTC 2018-05-30 10:00:01
Color range : Limited
Color primaries : BT.709
Transfer characteristics : BT.709
Matrix coefficients : BT.709

Video #2
ID : 9
Format : JPEG
Codec ID : jpeg
Duration : 2h 2mn
Bit rate mode : Variable
Bit rate : 779 bps
Width : 640 pixels
Height : 350 pixels
Display aspect ratio : 1.85:1
Frame rate mode : Variable
Frame rate : 0.002 fps
Minimum frame rate : 0.001 fps
Maximum frame rate : 0.005 fps
Color space : YUV
Chroma subsampling : 4:2:0
Bit depth : 8 bits
Compression mode : Lossy
Bits/(Pixel*Frame) : 1.739
Stream size : 760 KiB (0%)
Title : Chapter Images
Language : English
Encoded date : UTC 2018-05-30 10:00:11
Tagged date : UTC 2018-05-30 10:00:12

Audio #1
ID : 2
Format : AAC
Format/Info : Advanced Audio Codec
Format profile : LC
Codec ID : 40
Duration : 2h 2mn
Source duration : 2h 2mn
Bit rate mode : Variable
Bit rate : 126 Kbps
Maximum bit rate : 228 Kbps
Channel(s) : 2 channels
Channel positions : Front: L R
Sampling rate : 48.0 KHz
Compression mode : Lossy
Stream size : 110 MiB (5%)
Source stream size : 110 MiB (5%)
Title : Russian Stereo
Language : Russian
Encoded date : UTC 2018-05-30 09:59:55
Tagged date : UTC 2018-05-30 10:00:07

Audio #2
ID : 3
Format : AAC
Format/Info : Advanced Audio Codec
Format profile : LC
Codec ID : 40
Duration : 2h 2mn
Source duration : 2h 2mn
Bit rate mode : Variable
Bit rate : 125 Kbps
Maximum bit rate : 231 Kbps
Channel(s) : 2 channels
Channel positions : Front: L R
Sampling rate : 48.0 KHz
Compression mode : Lossy
Stream size : 110 MiB (5%)
Source stream size : 110 MiB (5%)
Title : English Stereo
Language : English
Encoded date : UTC 2018-05-30 09:59:55
Tagged date : UTC 2018-05-30 10:00:07

Text #1
ID : 4
Format : Timed Text
Muxing mode : sbtl
Codec ID : tx3g
Duration : 2h 2mn
Bit rate mode : Variable
Bit rate : 3 bps
Stream size : 2.69 KiB (0%)
Title : Russian forced
Language : Russian
Encoded date : UTC 2018-05-30 09:59:55
Tagged date : UTC 2018-05-30 09:59:59

Text #2
ID : 5
Format : Timed Text
Muxing mode : sbtl
Codec ID : tx3g
Duration : 2h 2mn
Bit rate mode : Variable
Bit rate : 112 bps
Stream size : 100 KiB (0%)
Title : Russian full
Language : Russian
Encoded date : UTC 2018-05-30 09:59:55
Tagged date : UTC 2018-05-30 10:00:00

Text #3
ID : 6
Format : Timed Text
Muxing mode : sbtl
Codec ID : tx3g
Duration : 1h 54mn
Bit rate mode : Variable
Bit rate : 78 bps
Stream size : 64.9 KiB (0%)
Title : English full
Language : English
Encoded date : UTC 2018-05-30 09:59:55
Tagged date : UTC 2018-05-30 10:00:00

Text #4
ID : 7
Format : Timed Text
Muxing mode : sbtl
Codec ID : tx3g
Duration : 2h 2mn
Bit rate mode : Variable
Bit rate : 99 bps
Stream size : 89.1 KiB (0%)
Title : Ukrainian full
Language : Ukrainian
Encoded date : UTC 2018-05-30 09:59:55
Tagged date : UTC 2018-05-30 10:00:00

Menu #1
00:00:00.000 : Chapter 1
00:11:42.327 : Chapter 2
00:24:00.397 : Chapter 3
00:29:22.719 : Chapter 4
00:43:31.359 : Chapter 5
00:50:22.603 : Chapter 6
00:54:07.286 : Chapter 7
01:02:18.902 : Chapter 8
01:07:25.124 : Chapter 9
01:11:39.629 : Chapter 10
01:15:10.381 : Chapter 11
01:20:32.411 : Chapter 12
01:25:34.963 : Chapter 13
01:31:17.639 : Chapter 14
01:40:01.746 : Chapter 15
01:51:26.221 : Chapter 16

Menu #2
ID : 8
Codec ID : text
Duration : 2h 2mn
Language : English
Encoded date : UTC 2018-05-30 10:00:07
Tagged date : UTC 2018-05-30 10:00:07
00:00:00.000 : Chapter 1
00:11:42.327 : Chapter 2
00:24:00.397 : Chapter 3
00:29:22.719 : Chapter 4
00:43:31.359 : Chapter 5
00:50:22.603 : Chapter 6
00:54:07.286 : Chapter 7
01:02:18.902 : Chapter 8
01:07:25.124 : Chapter 9
01:11:39.629 : Chapter 10
01:15:10.381 : Chapter 11
01:20:32.411 : Chapter 12
01:25:34.963 : Chapter 13
01:31:17.639 : Chapter 14
01:40:01.746 : Chapter 15
01:51:26.221 : Chapter 16
Bit rate mode : VBR
x264 [info]: frame I:1471  Avg QP:15.05  size: 88518
x264 [info]: frame P:37661 Avg QP:17.64  size: 24800
x264 [info]: frame B:136860 Avg QP:20.04  size:  6954
x264 [info]: consecutive B-frames:  1.7%  2.7%  6.2% 20.7% 21.9% 35.5% 11.2%
x264 [info]: mb I  I16..4: 12.3% 67.4% 20.3%
x264 [info]: mb P  I16..4:  1.1%  6.0%  1.4%  P16..4: 39.2% 24.5% 15.6%  0.0%  0.0%    skip:12.2%
x264 [info]: mb B  I16..4:  0.1%  0.6%  0.1%  B16..8: 42.5%  8.5%  2.4%  direct: 2.9%  skip:42.9%  L0:46.5% L1:46.4% BI: 7.1%
x264 [info]: 8x8 transform intra:70.7% inter:71.0%
x264 [info]: coded y,uvDC,uvAC intra: 85.6% 80.6% 56.3% inter: 23.4% 18.1% 2.2%
x264 [info]: i16 v,h,dc,p: 36% 18% 10% 36%
x264 [info]: i8 v,h,dc,ddl,ddr,vr,hd,vl,hu:  9%  9%  6% 10% 15% 14% 14% 11% 12%
x264 [info]: i4 v,h,dc,ddl,ddr,vr,hd,vl,hu: 10% 10%  3%  9% 15% 14% 15% 11% 14%
x264 [info]: i8c dc,h,v,p: 37% 26% 20% 17%
x264 [info]: Weighted P-Frames: Y:2.5% UV:1.3%
x264 [info]: ref P L0: 46.4%  9.9% 17.3%  6.9%  6.0%  4.4%  4.2%  2.4%  2.4%  0.1%  0.0%
x264 [info]: ref B L0: 68.6% 12.8%  7.4%  3.8%  2.9%  2.5%  1.6%  0.5%
x264 [info]: ref B L1: 92.9%  7.1%
x264 [info]: kb/s:2197.16

Релиз подготовлен для просмотра на Apple TV, iPad, iPhone, iPod Touch.
Для просмотра данного релиза на компьютере с ОС Windows рекомендуется использовать VLC media player

Трекер:  [ 30-Май-2018 13:36 ]

  

Скачать .torrent

Размер .torrent файла 21 KB


Размер: 2.1 GB
Хэш (hash) релиза: ce2b0fe2d034f05e0b0b2697bd03f96e54df11d4

Еще никто не оставлял запись к записи скачать торрент [iPad] Роман Израэл, Esq. Roman J. Israel, Esq. . Будь первым!

!Обратная связь