Operation Love (Cantonese) - 求婚大作戰Operation Love (Cantonese) | Vanessa O'Hanlon | Thinking in Java (4th Edition)

Скачать через торрент Последнее лето Фильм бесплатно в хорошем качестве torrent

Скачивайте на UnionPeer.org фильмы через торрент без регистрации. Новинки кино в хорошем качестве через торрент. На UnionPeer.org можно скачать через торрент фильмы 2014 и 2015 годов. Самые новые фильмы.

Скачать торрент Последнее лето бесплатно через .torrent фильм мультфильм сериал

Статистика раздачи
Размер:  1.36 GB   |    Зарегистрирован:  22 дня   |    .torrent скачан:  58 раз   |   
Раздают:  1  
   
загрузка...
 
Автор Сообщение

Galfimbul

avatar Galfimbul


Последнее лето

Жанр: драма
Год выпуска: 2013
Продолжительность: 01:20:59

Режиссёр: Евгений Звездаков

В ролях: Матвей Зубалевич, Игорь Огурцов, Надежда Толубеева, Александр Ткачев, Алексей Весёлкин мл., Мария Фомина
Описание: Костя, молодой парень, сын богатых родителей, отрывающийся в ночном клубе, приводит домой соблазнительную девушку… Очнувшись наутро, он понимает, что его поймали «на живца»: квартира обчищена. Костя находит девушку и ребят, «работающих» с ней, и неожиданно просит их… взять его к себе, в банду. Поначалу они относятся к его просьбе, как очередному капризу «мажора», однако ему удаётся завоевать их доверие. Он наводит их на квартиры своих однокурсников (Костя — студент финансовой академии) и вносит ряд «рационализаторских» предложений в работу банды. Несмотря на то, что он здесь самый молодой, к нему постепенно проникаются уважением. Первое время у ребят всё складывается удачно, но однажды они совершают ошибку…

Sample

Качество видео: WEB-DLRip
Формат видео: AVI

Видео: 720x384 (1.85:1), 25 fps, XviD, ~2205 kbps avg, 0.32 bit/pixel
Аудио: 48 kHz, AC3 Dolby Digital, 2/0 (L,R) ch, ~192 kbps
eneral
Complete name : D:\Последнее лето 2013.avi
Format : AVI
Format/Info : Audio Video Interleave
File size : 1.36 GiB
Duration : 1 h 20 min
Overall bit rate : 2 407 kb/s
Writing application : VirtualDubMod 1.5.10.3 | www.virtualdub-fr.org || (build 2550/release)
Writing library : VirtualDubMod build 2550/release

Video
ID : 0
Format : MPEG-4 Visual
Format profile : Advanced [email protected]
Format settings : BVOP1
Format settings, BVOP : 1
Format settings, QPel : No
Format settings, GMC : No warppoints
Format settings, Matrix : Default (MPEG)
Codec ID : XVID
Codec ID/Hint : XviD
Duration : 1 h 20 min
Bit rate : 2 205 kb/s
Width : 720 pixels
Height : 384 pixels
Display aspect ratio : 1.85:1
Frame rate : 25.000 FPS
Color space : YUV
Chroma subsampling : 4:2:0
Bit depth : 8 bits
Scan type : Progressive
Compression mode : Lossy
Bits/(Pixel*Frame) : 0.319
Stream size : 1.25 GiB (92%)
Writing library : XviD 73

Audio
ID : 1
Format : AC-3
Format/Info : Audio Coding 3
Codec ID : 2000
Duration : 1 h 20 min
Bit rate mode : Constant
Bit rate : 192 kb/s
Channel(s) : 2 channels
Channel positions : Front: L R
Sampling rate : 48.0 kHz
Frame rate : 31.250 FPS (1536 SPF)
Bit depth : 16 bits
Compression mode : Lossy
Stream size : 111 MiB (8%)
Alignment : Split accross interleaves
Interleave, duration : 40 ms (1.00 video frame)
Interleave, preload duratio : 500 ms
Service kind : Complete Main


Трекер:  [ 30-Май-2018 11:54 ]

  

Скачать .torrent

Размер .torrent файла 14 KB


Размер: 1.36 GB
Хэш (hash) релиза: 8f4b1017b8094ec635830b5df0967d75619907b9
Подписка на обновления:

Торренты, похожие на Последнее лето скачать торрент

Форум Название Автор Размер S L Добавлен
Зарубежные фильмы 2016-2018 (Новинки зарубежного кино) ·· Последнее лето Бэка / Becks letzter Sommer (Фридер Виттич) [2015, драма, комедия, музыка, WEBRip 720p] GreenРай Studio Galfimbul 27727895622.58 GB 0 0 1521970874

12:41

25-Мар-18

Зарубежные фильмы 2016-2018 (Новинки зарубежного кино) ·· Последнее лето Бэка / Becks letzter Sommer (Фридер Виттич) [2015, драма, комедия, музыка, WEBRip] GreenРай Studio Galfimbul 14688706561.37 GB 0 0 1521970838

12:40

25-Мар-18

Документальные фильмы и телепередачи ·· Саймон Шама о Рембрандте. Шедевры последних лет / BBC. Schama on Rembrandt: Masterpieces of the Late Years (Франк Ханли / Frank Hanly) [2014, документальный, искусство, HDTVRip 1080p] Galfimbul 18784570831.75 GB 0 0 1452585841

11:04

12-Янв-16

Документальные фильмы и телепередачи ·· Саймон Шама о Рембрандте. Шедевры последних лет / Simon Schama on Rembrandt: Masterpieces of the Late Years (Франк Ханли / Frank Hanly) [2014, Документальный, личности и кумиры, DVB] Galfimbul 14531686401.35 GB 0 0 1451977865

10:11

5-Янв-16

Зарубежные фильмы до 2016 ·· Последнее лето / Ruedoo ron nan chan tai (Саранью Джиралак) [2013, ужасы, DVDRip] Galfimbul 701126418669 MB 0 0 1435528186

00:49

29-Июн-15

Зарубежные фильмы до 2016 ·· Последнее лето в Бойте / El ultimo verano de la Boyita (Юлия Соломонофф) [2009 г., драма, DVDRip] Schweppes 14687457281.37 GB 0 0 1293400016

00:46

27-Дек-10

Российские фильмы до 2016 ·· Последнее лето детства (3 фильма из 3) (Валерий Рубинчик) [1974 г., Приключения, DVDRip] alf112 22430930442.09 GB 0 0 1290932025

11:13

28-Ноя-10

Документальные фильмы и телепередачи ·· Дэвид Боуи: Последние Пять Лет / David Bowie: The Last Five Years (Френсис Уотли / Francis Whately) [2017, Документальный, HDTVRip-AVC] MVO (Первый Канал) Galfimbul 837818011799 MB 0 0 1508064227

13:43

15-Окт-17

Документальные фильмы и телепередачи ·· Дэвид Боуи: Последние Пять Лет / David Bowie: The Last Five Years (Френсис Уотли / Francis Whately) [2017, Документальный, HDTVRip 720p] MVO (Первый Канал) Galfimbul 19485905831.81 GB 0 0 1507716768

13:12

11-Окт-17

Зарубежные фильмы до 2016 ·· Последние пять лет / The Last Five Years (Ричард ЛаГравенес) [2014, мюзикл, драма, мелодрама, комедия, WEBRip] Galfimbul 14669414401.37 GB 0 0 1430708380

05:59

4-Май-15

Зарубежные фильмы до 2016 ·· Рожденный летать / Последний рейс / Airborne [2012, ужасы, триллер, BDRip 720p] Galfimbul 40903355143.81 GB 0 0 1394238704

03:31

8-Мар-14

Зарубежные фильмы до 2016 ·· Рожденный летать / Последний рейс / Airborne [2012, ужасы, триллер, BDRip 1080p] Galfimbul 71594224226.67 GB 0 0 1394238699

03:31

8-Мар-14

Документальные фильмы и телепередачи ·· Мой Эрмитаж (57 выпусков) << По выставкам, которые за последние 14 лет прошли в Эрмитаже >> (Лев Цуцульковский) [1980-2013 г., Документальный цикл, познавательный, SATRip / DVB] Galfimbul 2348593719821.87 GB 0 0 1374504739

17:52

22-Июл-13

Мультфильмы до 2016 ·· Зайчонок и муха. Сборник мультфильмов (Зайчонок и муха; Дед Мороз и лето; Премудрый пескарь; Последняя охота; Му-му) [1969-1987, Мультфильм, DVD5] Galfimbul 27598661652.57 GB 0 0 1361723875

19:37

24-Фев-13

Мультфильмы до 2016 ·· Возвращение блудного попугая. Сборник мультфильмов (Дед Мороз и лето; Зайчонок и муха; Последняя охота) (Валентин Караваев) [1969-1988 гг., мультфильмы, DVD5] Крупный план sebladec 27526676482.56 GB 0 0 1293136040

23:27

23-Дек-10

Еще никто не оставлял запись к записи скачать торрент Последнее лето . Будь первым!

!Обратная связь