Boruto: Naruto Next Generations | Tactik saison 1 épisode 33 | Travis Walton

Скачать через торрент Жена по обмену Серии: 1-4 из 4 Фильм бесплатно в хорошем качестве torrent

Скачивайте на UnionPeer.org фильмы через торрент без регистрации. Новинки кино в хорошем качестве через торрент. На UnionPeer.org можно скачать через торрент фильмы 2014 и 2015 годов. Самые новые фильмы.

Скачать торрент Жена по обмену Серии: 1-4 из 4 бесплатно через .torrent фильм мультфильм сериал

Статистика раздачи
Размер:  2.35 GB   |    Зарегистрирован:  26 дней   |    .torrent скачан:  67 раз   |   
Раздают:  1  
   
загрузка...
 
Автор Сообщение

Galfimbul

avatar Galfimbul


Жена по обмену

Год выпуска: 2018
Производство: MAMAS FILM PRODUCTION
Жанр: мелодрама
Продолжительность: ~00:45:00 серия
Субтитры: нет

Режиссёр: Антон Щербаков

В ролях: Евгения Осипова, Вячеслав Довженко, Ольга Гришина, Артем Позняк, Соня Коецкая, Светлана Штанько, Тамара Антропова, Ксения Хижняк, Артём Дубницкий, Анна Лебедева, Сергей Солопай, Евгений Олейник, Владимир Гладкий, Вероника Смоловик, Анна Иванова, Виктор Степаненко, Дмитрий Вивчарюк, Борис Абрамов, Андрей Титов, Андрей Кронглевский, Святослав Тарасов, Оксана Архангельская, Олег Шушпанников, Сергей Сафрончик, Юрий Ребрик, Даниил Белых, Алексей Четватенко, Тимур Асланов, Атртём Вильбак, Полина Василина

Описание: Между Марией Возницкой и её мужем давно "пробежала кошка". Супруги уже не чувствуют былой близости и отдаляются друг от друга. Хоть Мария и живёт в полном достатке, её не устраивает то, что муж постоянно в отъездах и практически никогда с ней не бывает рядом. Чтобы как то обратить на себя внимания, она решается на опрометчивый шаг. Её решением становится участие в передаче под названием "Обмен жёнами", где две жены на время меняются семьями... Смогут ли главные герои принять правильное решение в непростой жизненной ситуации? И что ожидает их в финале этой захватывающей мелодраматической истории?

Реклама: Нет.

Все раздачи сериала
Sample

Качество: WEBRip - Files-x
Формат: AVI
Видео кодек: XviD
Аудио кодек: AC3
Видео: 720x400 (1.80:1), 25 fps, XviD build 73 ~1670 kbps avg, 0.232 bit/pixel
Аудио: 48.0 kHz, AC3 Dolby Digital, 2/0 (L,R) ch, ~ 192 kbps
General
Complete name : D:\Жена по обмену.2018.WEBRip.Files-x\01.Жена по обмену.2018.WEBRip.Files-x.avi
Format : AVI
Format/Info : Audio Video Interleave
File size : 602 MiB
Duration : 44 min 58 s
Overall bit rate : 1 873 kb/s
Writing application : VirtualDubMod 1.5.10.3 | www.virtualdub-fr.org || (build 2550/release)
Writing library : VirtualDubMod build 2550/release

Video
ID : 0
Format : MPEG-4 Visual
Format profile : Advanced [email protected]
Format settings : BVOP1 / QPel / Custom Matrix
Format settings, BVOP : 1
Format settings, QPel : Yes
Format settings, GMC : No warppoints
Format settings, Matrix : Custom
Codec ID : XVID
Codec ID/Hint : XviD
Duration : 44 min 58 s
Bit rate : 1 671 kb/s
Width : 720 pixels
Height : 400 pixels
Display aspect ratio : 16:9
Frame rate : 25.000 FPS
Color space : YUV
Chroma subsampling : 4:2:0
Bit depth : 8 bits
Scan type : Progressive
Compression mode : Lossy
Bits/(Pixel*Frame) : 0.232
Stream size : 538 MiB (89%)
Writing library : XviD 73

Audio
ID : 1
Format : AC-3
Format/Info : Audio Coding 3
Codec ID : 2000
Duration : 44 min 58 s
Bit rate mode : Constant
Bit rate : 192 kb/s
Channel(s) : 2 channels
Channel positions : Front: L R
Sampling rate : 48.0 kHz
Frame rate : 31.250 FPS (1536 SPF)
Bit depth : 16 bits
Compression mode : Lossy
Stream size : 61.8 MiB (10%)
Alignment : Split accross interleaves
Interleave, duration : 40 ms (1.00 video frame)
Interleave, preload duratio : 500 ms
Service kind : Complete Main


Трекер:  [ 30-Май-2018 11:42 ]

  

Скачать .torrent

Размер .torrent файла 12 KB


Размер: 2.35 GB
Хэш (hash) релиза: 1fca8a0874c34b3e5258521472c2f0ef7043cf98
Подписка на обновления:

Еще никто не оставлял запись к записи скачать торрент Жена по обмену Серии: 1-4 из 4 . Будь первым!

!Обратная связь