Cosmopolitan Korea – 2018-06-01 | Tutorials | Martires

Скачать через торрент Охотники на троллей Trollhunters Фильм бесплатно в хорошем качестве torrent

Скачивайте на UnionPeer.org фильмы через торрент без регистрации. Новинки кино в хорошем качестве через торрент. На UnionPeer.org можно скачать через торрент фильмы 2014 и 2015 годов. Самые новые фильмы.

Скачать торрент Охотники на троллей Trollhunters бесплатно через .torrent фильм мультфильм сериал

Статистика раздачи
Размер:  3.66 GB   |    Зарегистрирован:  26 дней   |    .torrent скачан:  15 раз   |   
Раздают:  1  
   
загрузка...
 
Автор Сообщение

Galfimbul

avatar Galfimbul


Охотники на троллей / Trollhunters

Год выпуска: 2018
Страна: США
Жанр: мультфильм, фэнтези, комедия, приключения
Продолжительность: ~00:22:00

Перевод: Профессиональный (двухголосый закадровый) Gears Media

Режиссёр: Родриго Блаас, Грег Тирнан

Описание: В руки пятнадцатилетнему юноше попадает Магический Амулет, который даёт ему звание охотника на троллей, призванного защищать троллей, живущих под землёй — под человеческим городом Аркадия. «Охотники на троллей» - мультсериал в жанре комедии и фэнтези, вышедший в 2016 году. Он расскажет о легендарной битве, участниками которой станут люди и тролли.

Ссылка на предыдущие и альтернативные раздачи:

Сэмпл: http://multi-up.com/1199954

Качество: WEBRip
Формат: AVI
Видео: XviD, 720x400 at 29.976 fps, ~1500 kbps avg
Аудио1: Russian, MP3, 48 kHz, 2 ch, 128 kbps
Аудио2: English, MP3, 48 kHz, 2 ch, 128 kbps
Субтитры: нет
Реклама: аудио (два раза, в начале и конце, по 12 сек.)
Format : AVI
Format/Info : Audio Video Interleave
File size : 294 MiB
Duration : 23 min 36 s
Overall bit rate : 1 739 kb/s
Writing application : Lavf56.30.100

Video
ID : 0
Format : xvid
Codec ID : xvid
Duration : 23 min 36 s
Bit rate : 1 462 kb/s
Width : 720 pixels
Height : 400 pixels
Display aspect ratio : 16:9
Frame rate : 23.976 (24000/1001) FPS
Scan type : Progressive
Bits/(Pixel*Frame) : 0.212
Stream size : 247 MiB (84%)

Audio #1
ID : 1
Format : MPEG Audio
Format version : Version 1
Format profile : Layer 3
Format settings : Joint stereo / MS Stereo
Codec ID : 55
Codec ID/Hint : MP3
Duration : 23 min 36 s
Bit rate mode : Constant
Bit rate : 128 kb/s
Channel(s) : 2 channels
Sampling rate : 48.0 kHz
Compression mode : Lossy
Stream size : 21.6 MiB (7%)
Alignment : Aligned on interleaves
Interleave, duration : 24 ms (0.58 video frame)
Interleave, preload duratio : 24 ms
Title : Gears Media
Writing library : LAME3.99.5ЄЄЄЄЄЄЄЄЄЄ

Audio #2
ID : 2
Format : MPEG Audio
Format version : Version 1
Format profile : Layer 3
Format settings : Joint stereo / MS Stereo
Codec ID : 55
Codec ID/Hint : MP3
Duration : 23 min 36 s
Bit rate mode : Constant
Bit rate : 128 kb/s
Channel(s) : 2 channels
Sampling rate : 48.0 kHz
Compression mode : Lossy
Stream size : 21.6 MiB (7%)
Alignment : Aligned on interleaves
Interleave, duration : 24 ms (0.58 video frame)
Interleave, preload duratio : 24 ms
<div class="sp-wrap">
<div class="sp-head folded">Внимание! Раздача ведётся путём добавления новых серий</div>
<div class="sp-body">[b]Внимание! Раздача ведётся путём добавления новых серий; при каждом добавлении создаётся новый торрент. Чтобы начать докачку новой серии, пользователям необходимо сделать следующее:
(1) остановить скачивание,
(2) удалить старый торрент у себя из клиента (старые серии удалять не надо),
(3) скачать новый торрент и запустить его у себя в клиенте вместо старого, при этом указать клиенту путь в старую папку куда и должно происходить скачивание новых серий.

Eсли вы уже удалили старые серии, то предотвратить повторную закачку старых серий можно, отжав галочку в соответствующих местах при запуске нового торрента. По возможности, желательно не удалять старые серии как можно дольше чтобы релизёр не столько продолжал раздавать старые серии, а смог сконцентрироваться на новых.</div>
</div>

Трекер:  [ 30-Май-2018 08:54 ]

  

Скачать .torrent

Размер .torrent файла 38 KB


Размер: 3.66 GB
Хэш (hash) релиза: 283395f38ae7e49577e7d0b7587d8dc828b46041
Подписка на обновления:

Торренты, похожие на Охотники на троллей Trollhunters скачать торрент

Форум Название Автор Размер S L Добавлен
Мультсериалы ·· Охотники на троллей / Trollhunters / Сезон: 3 / Серии: 1-13 из 13 (Родриго Блаас, Грег Тирнан) [2018, США, мультфильм, фэнтези, комедия, приключения, WEBRip 720p] DVO (Gears Media) + Original Galfimbul 78246638177.29 GB 0 0 1527656051

07:54

30-Май-18

Еще никто не оставлял запись к записи скачать торрент Охотники на троллей Trollhunters . Будь первым!

!Обратная связь