8.6 Vikings - Staffel 1 WEB-DLRip, 2013, Ireland, Canada, TV Shows, Drama, Action, Historical | LINE: Llama y mensajea gratis | Episode 20

Скачать через торрент [ATV3] Точка невозврата High Wire Act бесплатно русская версия torrent активатор

Статистика раздачи
Размер:  3.79 GB   |    Зарегистрирован:  26 дней   |    .torrent скачан:  31 раз   |   
Раздают:  1  
   
загрузка...
 
Автор Сообщение

Galfimbul

avatar Galfimbul


Точка невозврата / High Wire Act
«Beirut: 1982 - The Paris of the Middle East Was Burning»

6.396 / 10 6.50 / 10
Год выпуска: 2018
Страна: США
Жанр: Триллер, драма
Продолжительность: 01:44:50

Перевод: Дублированный (iTunes)
Оригинальная аудиодорожка: Нет
Cубтитры: Нет
Режиссёр: Брэд Андерсон
Сценарий: Тони Гилрой
Продюсер: Тед Филд, Тони Гилрой, Моника Левинсон
Оператор: Бьёрн Чарпентье
Композитор: Джон Дебни
Художник: Арад Сават, Йен Бейли, Тедди Сетиаван
Монтаж: Эндрю Хэфитц
В ролях: Розамунд Пайк, Джон Хэмм, Марк Пеллегрино, Дин Норрис, Шей Уигэм, Дуглас Ходж, Джонатан Койн, Кейт Флитвуд, Лейла Бехти, Алон Абутбул

Сборы в США: $4 980 977
Сборы в мире: + $597 318 = $5 578 295
Сборы в России: $56 538

Мировая премьера: 22 января 2018
Премьера (РФ): 19 апреля 2018, «Парадиз»

Описание: Разгар Ливанской войны. Интриги, предательство, грязные компроматы, нравственное падение, жертвенность и любовь, боль и надежда… На руках героя умирает жена, подстреленная террористами. Через десять лет он, преодолев ненависть и отчаяние, возвращается в Бейрут, чтобы вызволить из плена давнего друга, захваченного в плен боевиками.
Качество исходника: WEB-DL 1080p (BlueBird)
Качество: WEB-DL
Тип: HD (1080p)
Контейнер: M4V
Видео: H.264, 1920x804, 2.40:1, 4 635 Kbps, 25.000 fps

Аудио 1: Русский/Дублированный (iTunes), AAC / 2.0 / 160 Kbps / 48.0 KHz
Аудио 2: Русский/Дублированный (iTunes), AC-3 / 5.1 / 384 Kbps / 48.0 KHz
Sort Name: Точка невозврата
XID: Apple:vendor_id:2018-924167
contentID: 1378087895
Copyright: © 2018 Paradise
Screenwriters: Тони Гилрой
Producers: Тед Филд, Тони Гилрой, Моника Левинсон
Director: Брэд Андерсон
Cast: Розамунд Пайк, Джон Хэмм, Марк Пеллегрино, Дин Норрис, Шей Уигэм, Дуглас Ходж, Джонатан Койн, Кейт Флитвуд, Лейла Бехти, Алон Абутбул
Studio: Kasbah-Film Tanger, Radar Pictures, ShivHans Pictures
Rating: 135
Long Description: Разгар Ливанской войны. Интриги, предательство, грязные компроматы, нравственное падение, жертвенность и любовь, боль и надежда… На руках героя умирает жена, подстреленная террористами. Через десять лет он, преодолев ненависть и отчаяние, возвращается в Бейрут, чтобы вызволить из плена давнего друга, захваченного в плен боевиками.
Description: Разгар Ливанской войны. Интриги, предательство, грязные компроматы, нравственное падение, жертвенность и любовь, боль и надежда…
Release Date: 2018-04-19T07:00:00Z
Genre: Драма
Artist: Брэд Андерсон
Name: Точка невозврата
General
Complete name : /Users/imac/HandBrake/High.Wire.Act.WEB-DL.1080p.m4v
Format : MPEG-4
Codec ID : M4V
File size : 3.79 GiB
Duration : 1h 44mn
Overall bit rate mode : Variable
Overall bit rate : 5 182 Kbps
Movie name : Точка невозврата
Performer : Брэд Андерсон
Director : Брэд Андерсон
Actor : Розамунд Пайк / Джон Хэмм / Марк Пеллегрино / Дин Норрис / Шей Уигэм / Дуглас Ходж / Джонатан Койн / Кейт Флитвуд / Лейла Бехти / Алон Абутбул
Screenplay by : Тони Гилрой
Producer : Тед Филд / Тони Гилрой / Моника Левинсон
Production studio : Kasbah-Film Tanger, Radar Pictures, ShivHans Pictures
Genre : Драма
ContentType : Short Film
Description : Разгар Ливанской войны. Интриги, предательство, грязные компроматы, нравственное падение, жертвенность и любовь, боль и надежда…
Recorded date : UTC 2018-04-19 07:00:00
Encoded date : UTC 2018-05-29 22:43:11
Tagged date : UTC 2018-05-29 22:44:02
Copyright : © 2018 Paradise
Cover : Yes
Rating : None
Title/Sort : Точка невозврата
LongDescription : Разгар Ливанской войны. Интриги, предательство, грязные компроматы, нравственное падение, жертвенность и любовь, боль и надежда… На руках героя умирает жена, подстреленная террористами. Через десять лет он, преодолев ненависть и отчаяние, возвращается в Бейрут, чтобы вызволить из плена давнего друга, захваченного в плен боевиками.
AppleStoreCatalogID : 1378087895
Vendor : Apple:vendor_id:2018-924167
ContentRating : ru-movie|16+|375|

Video #1
ID : 1
Format : AVC
Format/Info : Advanced Video Codec
Format profile : [email protected]
Format settings, CABAC : Yes
Format settings, ReFrames : 5 frames
Codec ID : avc1
Codec ID/Info : Advanced Video Coding
Duration : 1h 44mn
Bit rate : 4 635 Kbps
Width : 1 920 pixels
Height : 804 pixels
Display aspect ratio : 2.40:1
Frame rate mode : Constant
Frame rate : 25.000 fps
Color space : YUV
Chroma subsampling : 4:2:0
Bit depth : 8 bits
Scan type : Progressive
Bits/(Pixel*Frame) : 0.120
Stream size : 3.39 GiB (89%)
Title : Main Program
Language : English
Encoded date : UTC 2018-05-29 22:43:11
Tagged date : UTC 2018-05-29 22:43:19
Color range : Limited
Color primaries : BT.709
Transfer characteristics : BT.709
Matrix coefficients : BT.709

Video #2
ID : 5
Format : JPEG
Codec ID : jpeg
Duration : 1h 44mn
Bit rate mode : Variable
Bit rate : 449 bps
Width : 640 pixels
Height : 268 pixels
Display aspect ratio : 2.40:1
Frame rate mode : Variable
Frame rate : 0.002 fps
Minimum frame rate : 0.002 fps
Maximum frame rate : 0.004 fps
Color space : YUV
Chroma subsampling : 4:2:0
Bit depth : 8 bits
Compression mode : Lossy
Bits/(Pixel*Frame) : 1.309
Stream size : 411 KiB (0%)
Title : Chapter Images
Language : English
Encoded date : UTC 2018-05-29 22:43:26
Tagged date : UTC 2018-05-29 22:43:26

Audio #1
ID : 2
Format : AAC
Format/Info : Advanced Audio Codec
Format profile : LC
Codec ID : 40
Duration : 1h 44mn
Source duration : 1h 44mn
Bit rate mode : Variable
Bit rate : 158 Kbps
Maximum bit rate : 232 Kbps
Channel(s) : 2 channels
Channel positions : Front: L R
Sampling rate : 48.0 KHz
Compression mode : Lossy
Stream size : 118 MiB (3%)
Source stream size : 118 MiB (3%)
Title : Russian Stereo
Language : Russian
Encoded date : UTC 2018-05-29 22:43:12
Tagged date : UTC 2018-05-29 22:43:20

Audio #2
ID : 3
Format : AC-3
Format/Info : Audio Coding 3
Mode extension : CM (complete main)
Format settings, Endianness : Big
Codec ID : ac-3
Duration : 1h 44mn
Bit rate mode : Constant
Bit rate : 384 Kbps
Channel(s) : 6 channels
Channel positions : Front: L C R, Side: L R, LFE
Sampling rate : 48.0 KHz
Bit depth : 16 bits
Compression mode : Lossy
Stream size : 288 MiB (7%)
Title : Russian DD 5.1
Language : Russian
Encoded date : UTC 2018-05-29 22:43:12
Tagged date : UTC 2018-05-29 22:43:19

Menu #1
00:00:00.000 : Глава 1
00:04:23.920 : Глава 2
00:12:31.720 : Глава 3
00:16:16.080 : Глава 4
00:20:04.440 : Глава 5
00:28:25.960 : Глава 6
00:32:43.239 : Глава 7
00:40:05.119 : Глава 8
00:48:11.559 : Глава 9
00:57:55.839 : Глава 10
01:07:42.799 : Глава 11
01:18:27.399 : Глава 12
01:28:04.239 : Глава 13
01:34:36.119 : Глава 14
01:39:38.159 : Глава 15

Menu #2
ID : 4
Codec ID : text
Duration : 1h 44mn
Language : English
Encoded date : UTC 2018-05-29 22:43:21
Tagged date : UTC 2018-05-29 22:43:21
00:00:00.000 : Глава 1
00:04:23.920 : Глава 2
00:12:31.720 : Глава 3
00:16:16.080 : Глава 4
00:20:04.440 : Глава 5
00:28:25.960 : Глава 6
00:32:43.239 : Глава 7
00:40:05.119 : Глава 8
00:48:11.559 : Глава 9
00:57:55.839 : Глава 10
01:07:42.799 : Глава 11
01:18:27.399 : Глава 12
01:28:04.239 : Глава 13
01:34:36.119 : Глава 14
01:39:38.159 : Глава 15
Bit rate mode : VBR

Релиз подготовлен для просмотра на Apple TV, iPad, iPhone, iPod Touch.
Для просмотра данного релиза на компьютере с ОС Windows рекомендуется использовать VLC media player

Трекер:  [ 30-Май-2018 02:06 ]

  

Скачать .torrent

Размер .torrent файла 38 KB


Размер: 3.79 GB
Хэш (hash) релиза: 1fdaaf3e69b843acd7bc337d59621cf7c59cf783

Еще никто не оставлял запись к записи скачать торрент [ATV3] Точка невозврата High Wire Act . Будь первым!

!Обратная связь