Rooney Mara | Punjabi Movies | Macross Frontier

Скачать через торрент Самый лучший день Фильм бесплатно в хорошем качестве torrent

Скачивайте на UnionPeer.org фильмы через торрент без регистрации. Новинки кино в хорошем качестве через торрент. На UnionPeer.org можно скачать через торрент фильмы 2014 и 2015 годов. Самые новые фильмы.

Скачать торрент Самый лучший день бесплатно через .torrent фильм мультфильм сериал

Статистика раздачи
Размер:  746 MB   |    Зарегистрирован:  2 месяца 19 дней   |    .torrent скачан:  47 раз   |   
Раздают:  1  
   
загрузка...
 
Автор Сообщение

Galfimbul

avatar Galfimbul


Самый лучший день

Жанр: комедия, музыка
Год выпуска: 2015
Продолжительность: 01:47:04

Режиссёр: Жора Крыжовников

В ролях: Дмитрий Нагиев
Юлия Александрова
Ольга Серябкина
Сергей Лавыгин
Инна Чурикова
Михаил Боярский
Елена Яковлева
Владислав Ветров
Валентина Мазунина
Ян Цапник

Описание: Успешному сотруднику ДПС Пете Васютину уже давно пора заводить семью, а он живет с мамой, хозяйкой придорожного кафе. И невеста есть — королева бензоколонки, кассирша Оля. В тот самый день, когда Петя решает сделать Оле предложение, в его служебную машину врезается пьяная поп-звезда Алина Шёпот. Чтобы избежать наказания, Алина решает соблазнить Петю…

Доп. информация: http://www.kinopoisk.ru/film/samyy-luchshiy-den-2015-843784/

Сэмпл: http://sendfile.su/1422396

Качество видео: HDRip найден в сети
Формат видео: AVI

Видео: 624x336 (1.86:1), 24.000 fps, XviD build 73 ~836 kbps avg, 0.17 bit/pixel
Аудио: 48 kHz, MPEG Layer 3, 2 ch, ~128.00 kbps avg
GeneralComplete name : C:\Samyj.Luchshij.Denj.2015.XviD.BDRip.by.GeneralFilm.aviFormat : AVIFormat/Info : Audio Video InterleaveFile size : 746 MiBDuration : 1h 47mnOverall bit rate : 974 KbpsWriting application : VirtualDubMod 1.5.10.3 | www.virtualdub-fr.org || (build 2550/release)Writing library : VirtualDubMod build 2550/release

VideoID : 0Format : MPEG-4 VisualFormat profile : Advanced [email protected] settings, BVOP : 1Format settings, QPel : NoFormat settings, GMC : No warppointsFormat settings, Matrix : CustomCodec ID : XVIDCodec ID/Hint : XviDDuration : 1h 47mnBit rate : 837 KbpsWidth : 624 pixelsHeight : 336 pixelsDisplay aspect ratio : 1.857Frame rate : 24.000 fpsColor space : YUVChroma subsampling : 4:2:0Bit depth : 8 bitsScan type : ProgressiveCompression mode : LossyBits/(Pixel*Frame) : 0.166Stream size : 641 MiB (86%)Writing library : XviD 73

AudioID : 1Format : MPEG AudioFormat version : Version 1Format profile : Layer 3Codec ID : 55Codec ID/Hint : MP3Duration : 1h 47mnBit rate mode : ConstantBit rate : 128 KbpsChannel(s) : 2 channelsSampling rate : 48.0 KHzCompression mode : LossyStream size : 98.0 MiB (13%)Alignment : Aligned on interleavesInterleave, duration : 42 ms (1.00 video frame)Interleave, preload duration : 504 msWriting library : LAME3.99rEncoding settings : -m s -V 4 -q 0 -lowpass 17 -b 128


Трекер:  [ 29-Май-2018 23:54 ]

  

Скачать .torrent

Размер .torrent файла 15 KB


Размер: 746 MB
Хэш (hash) релиза: 3efa0f1d369d2336ea96f13a098d8bfeb7d69a19
Подписка на обновления:

Торренты, похожие на Самый лучший день скачать торрент

Форум Название Автор Размер S L Добавлен
Российские фильмы до 2016 ·· Самый лучший день (Жора Крыжовников) [2015, Россия, комедия, музыка, HDRip-AVC] Galfimbul 22075597252.06 GB 0 0 1456127001

10:43

22-Фев-16

Российские фильмы до 2016 ·· Самый лучший день (Жора Крыжовников) [2015, Россия, комедия, музыка, Blu-ray disc 1080p] [RUS] + Original Rus Galfimbul 2116954036419.72 GB 0 0 1455469587

20:06

14-Фев-16

Российские фильмы до 2016 ·· Самый лучший день (Жора Крыжовников) [2015, Россия, комедия, музыка, BDRip 720p] Galfimbul 63610974865.92 GB 0 0 1455469545

20:05

14-Фев-16

Российские фильмы до 2016 ·· Самый лучший день (Жора Крыжовников) [2015, Комедия, музыка, Blu-ray] Лицензия Galfimbul 2116954036419.72 GB 0 0 1455271976

13:12

12-Фев-16

Российские фильмы до 2016 ·· Самый лучший день (Жора Крыжовников) [2015, Комедия, музыка, BDRip 720p] Galfimbul 61116053805.69 GB 0 0 1455263018

10:43

12-Фев-16

Российские фильмы до 2016 ·· Самый лучший день (Жора Крыжовников) [2015, Россия, комедия, музыка, WEB-DL 1080p] + Original Rus Galfimbul 44119134844.11 GB 0 0 1453838426

23:00

26-Янв-16

Российские фильмы до 2016 ·· Самый лучший день (Жора Крыжовников) [2015, комедия, музыка, WEB-DLRip] Galfimbul 782417920746 MB 0 0 1453704163

09:42

25-Янв-16

Российские фильмы до 2016 ·· Самый лучший день (Жора Крыжовников) [2015, комедия, музыка, WEB-DLRip-AVC] iTunes Galfimbul 15680781421.46 GB 0 0 1453701696

09:01

25-Янв-16

Российские фильмы до 2016 ·· Самый лучший день (Жора Крыжовников) [2015, комедия, музыка, WEB-DL 1080p] iTunes Galfimbul 44119134844.11 GB 0 0 1453671580

00:39

25-Янв-16

Российские фильмы до 2016 ·· Самый лучший день (Жора Крыжовников) [2015, комедия, музыка, WEB-DL 720p] iTunes Galfimbul 35983603933.35 GB 0 0 1453668668

23:51

24-Янв-16

Российские фильмы до 2016 ·· Самый лучший день (Жора Крыжовников) [2015, комедия, музыка, WEB-DLRip] iTunes Galfimbul 15729807361.46 GB 0 0 1453668644

23:50

24-Янв-16

Еще никто не оставлял запись к записи скачать торрент Самый лучший день . Будь первым!

!Обратная связь