Watch movie | xnxx sathi | Aventure

Скачать через торрент Роман Израэл, Esq. Roman J. Israel, Esq. бесплатно русская версия torrent активатор

Статистика раздачи
Размер:  4.36 GB   |    Зарегистрирован:  26 дней   |    .torrent скачан:  21 раз   |   
Раздают:  1  
   
загрузка...
 
Автор Сообщение

Galfimbul

avatar Galfimbul


Роман Израэл, Esq. / Roman J. Israel, Esq.
«All rise»

6.272 / 10 6.40 / 10
Год выпуска: 2017
Страна: США
Жанр: Драма, криминал
Продолжительность: 02:02:20

Перевод: Многоголосый закадровый (Лицензия)
Оригинальная аудиодорожка: Есть
Cубтитры: Русские форсированные, Русские, Английские, Украинские
Режиссёр: Дэн Гилрой
Сценарий: Дэн Гилрой
Продюсер: Тодд Блэк, Майкл Блум, Джейсон Клот
Оператор: Роберт Элсвит
Композитор: Джеймс Ньютон Ховард
Художник: Кевин Кэвэно, Роберт В. Джозеф, Френсин Джеймисон-Танчук
Монтаж: Джон Гилрой
В ролях: Дензел Вашингтон, Колин Фаррелл, Кармен Эджого, Линда Граватт, Аманда Уоррен, Хьюго Армстронг, Сэм Гилрой, Тони Плана, Дерон Хортон, Амари Читом

Бюджет: $22 000 000
Сборы в США: $11 962 778
Сборы в мире: + $702 984 = $12 665 762

Мировая премьера: 10 сентября 2017

Описание: История опытного адвоката-идеалиста с твёрдой хваткой, Романа Дж. Израэля. Череда событий вынуждает героя пойти на крайние меры, противоречащие его профессиональным и моральным принципам.
Качество исходника: Blu-Ray (BlueBird)
Качество: BDRip
Тип: HD (720p)
Контейнер: M4V
Видео: H.264, 1920x1040, 1.85:1, 8 000 Kbps, 23.976 (24000/1001) fps

Аудио 1: Русский/Многоголосый закадровый (Лицензия), AAC / 2.0 / 160 Kbps / 48.0 KHz
Аудио 2: Английский/Оригинальная дорожка , AAC / 2.0 / 160 Kbps / 48.0 KHz
Аудио 3: Русский/Многоголосый закадровый (Лицензия), AC-3 / 5.1 / 640 Kbps / 48.0 KHz
Аудио 4: Английский/Оригинальная дорожка , AC-3 / 5.1 / 640 Kbps / 48.0 KHz

Субтитры 1: Русские форсированные
Субтитры 2: Русские полные
Субтитры 3: Английские полные
Субтитры 4: Украинские полные
Sort Name: Roman J. Israel, Esq.
XID: Apple:vendor_id:2017-1005831
contentID: 1309438073
Copyright: © 2017 Columbia Pictures Industries, Inc., CCP Inner City Film Holdings, LLC, Macro Content Fund I, LLC, Bron Creative Corp. and IN Splitter, L.P. All Rights Reserved.
Screenwriters: Дэн Гилрой
Producers: Тодд Блэк, Майкл Блум, Джейсон Клот
Director: Дэн Гилрой
Cast: Дензел Вашингтон, Колин Фаррелл, Кармен Эджого, Линда Граватт, Аманда Уоррен, Хьюго Армстронг, Сэм Гилрой, Тони Плана, Дерон Хортон, Амари Читом
Studio: Bron Studios
Rating Annotation: Rated PG-13 for language and some violence.
Rating: 4
Long Description: История опытного адвоката-идеалиста с твёрдой хваткой, Романа Дж. Израэля. Череда событий вынуждает героя пойти на крайние меры, противоречащие его профессиональным и моральным принципам.
Description: История опытного адвоката-идеалиста с твёрдой хваткой, Романа Дж. Израэля. Череда событий вынуждает героя пойти на крайние меры, противоречащие его профессиональным и моральным принципам.
Release Date: 2017-09-10T08:00:00Z
Genre: Thriller
Artist: Dan Gilroy
Name: Roman J. Israel, Esq.
General
Complete name                            : /Users/imac/HandBrake/Roman J. Israel, Esq.(720p HD).m4v
Format                                   : MPEG-4
Codec ID                                 : M4V  (M4V /M4A /mp42/isom)
File size                                : 4.36 GiB
Duration                                 : 2h 2mn
Overall bit rate mode                    : Variable
Overall bit rate                         : 5 098 Kbps
Movie name                               : Roman J. Israel, Esq.
Performer                                : Dan Gilroy
Director                                 : Дэн Гилрой
Actor                                    : Дензел Вашингтон / Колин Фаррелл / Кармен Эджого / Линда Граватт / Аманда Уоррен / Хьюго Армстронг / Сэм Гилрой / Тони Плана / Дерон Хортон / Амари Читом
Screenplay by                            : Дэн Гилрой
Producer                                 : Тодд Блэк / Майкл Блум / Джейсон Клот
Production studio                        : Bron Studios
Genre                                    : Thriller
ContentType                              : Short Film
Description                              : История опытного адвоката-идеалиста с твёрдой хваткой, Романа Дж. Израэля. Череда событий вынуждает героя пойти на крайние меры, противоречащие его профессиональным и моральным принципам.
Recorded date                            : UTC 2017-09-10 08:00:00
Encoded date                             : UTC 2018-05-29 17:16:42
Tagged date                              : UTC 2018-05-29 17:22:09
Copyright                                : © 2017 Columbia Pictures Industries, Inc., CCP Inner City Film Holdings, LLC, Macro Content Fund I, LLC, Bron Creative Corp. and IN Splitter, L.P. All Rights Reserved.
Cover                                    : Yes
Rating                                   : None
Title/Sort                               : Roman J. Israel, Esq.
LongDescription                          : История опытного адвоката-идеалиста с твёрдой хваткой, Романа Дж. Израэля. Череда событий вынуждает героя пойти на крайние меры, противоречащие его профессиональным и моральным принципам.
HDVideo                                  : Yes
AppleStoreCatalogID                      : 1309438073
Vendor                                   : Apple:vendor_id:2017-1005831
ContentRating                            : mpaa|PG-13|300|Rated PG-13 for language and some violence.

Video #1
ID                                       : 1
Format                                   : AVC
Format/Info                              : Advanced Video Codec
Format profile                           : [email protected]
Format settings                          : 3 Ref Frames
Format settings, CABAC                   : No
Format settings, ReFrames                : 3 frames
Codec ID                                 : avc1
Codec ID/Info                            : Advanced Video Coding
Duration                                 : 2h 2mn
Source duration                          : 2h 2mn
Bit rate                                 : 3 500 Kbps
Width                                    : 1 280 pixels
Height                                   : 690 pixels
Display aspect ratio                     : 1.85:1
Frame rate mode                          : Variable
Frame rate                               : 23.976 (24000/1001) fps
Minimum frame rate                       : 23.974 fps
Maximum frame rate                       : 23.981 fps
Color space                              : YUV
Chroma subsampling                       : 4:2:0
Bit depth                                : 8 bits
Scan type                                : Progressive
Bits/(Pixel*Frame)                       : 0.165
Stream size                              : 2.99 GiB (69%)
Source stream size                       : 2.99 GiB (69%)
Title                                    : Main Program
Writing library                          : x264 core 155 r2893 b00bcaf
Encoding settings                        : cabac=0 / ref=3 / deblock=1:-3:-3 / analyse=0x3:0x113 / me=umh / subme=9 / psy=1 / psy_rd=1.00:0.15 / mixed_ref=1 / me_range=32 / chroma_me=1 / trellis=0 / 8x8dct=1 / cqm=0 / deadzone=21,11 / fast_pskip=0 / chroma_qp_offset=-2 / threads=22 / lookahead_threads=1 / sliced_threads=0 / nr=0 / decimate=0 / interlaced=0 / bluray_compat=0 / constrained_intra=0 / bframes=3 / b_pyramid=0 / b_adapt=2 / b_bias=0 / direct=1 / weightb=0 / open_gop=0 / weightp=0 / keyint=240 / keyint_min=24 / scenecut=40 / intra_refresh=0 / rc_lookahead=40 / rc=2pass / mbtree=1 / bitrate=3500 / ratetol=1.0 / qcomp=0.65 / qpmin=0 / qpmax=69 / qpstep=4 / cplxblur=20.0 / qblur=0.5 / vbv_maxrate=9500 / vbv_bufsize=9500 / nal_hrd=none / filler=0 / ip_ratio=1.40 / aq=1:1.10
Language                                 : English
Encoded date                             : UTC 2018-05-29 17:16:42
Tagged date                              : UTC 2018-05-29 17:16:50
Color range                              : Limited
Color primaries                          : BT.709
Transfer characteristics                 : BT.709
Matrix coefficients                      : BT.709
Menus                                    : 10,11

Video #2
ID                                       : 11
Format                                   : JPEG
Codec ID                                 : jpeg
Duration                                 : 2h 2mn
Bit rate mode                            : Variable
Bit rate                                 : 780 bps
Width                                    : 640 pixels
Height                                   : 345 pixels
Display aspect ratio                     : 1.85:1
Frame rate mode                          : Variable
Frame rate                               : 0.002 fps
Minimum frame rate                       : 0.001 fps
Maximum frame rate                       : 0.005 fps
Color space                              : YUV
Chroma subsampling                       : 4:2:0
Bit depth                                : 8 bits
Compression mode                         : Lossy
Bits/(Pixel*Frame)                       : 1.766
Stream size                              : 762 KiB (0%)
Title                                    : Chapter Images
Language                                 : English
Default                                  : No
Encoded date                             : UTC 2018-05-29 17:18:01
Tagged date                              : UTC 2018-05-29 17:18:01
Menu For                                 : 1
ColorSpace_ICC                           : RGB

Audio #1
ID                                       : 2
Format                                   : AAC
Format/Info                              : Advanced Audio Codec
Format profile                           : LC
Codec ID                                 : mp4a-40-2
Duration                                 : 2h 2mn
Source duration                          : 2h 2mn
Bit rate mode                            : Variable
Bit rate                                 : 155 Kbps
Maximum bit rate                         : 273 Kbps
Channel(s)                               : 2 channels
Channel positions                        : Front: L R
Sampling rate                            : 48.0 KHz
Frame rate                               : 46.875 fps (1024 SPF)
Compression mode                         : Lossy
Stream size                              : 136 MiB (3%)
Source stream size                       : 136 MiB (3%)
Title                                    : Russian Stereo
Language                                 : Russian
Default                                  : Yes
Alternate group                          : 1
Encoded date                             : UTC 2018-05-29 17:16:42
Tagged date                              : UTC 2018-05-29 17:17:56
Fallback From                            : 4
Subtitles                                : 6,7

Audio #2
ID                                       : 3
Format                                   : AAC
Format/Info                              : Advanced Audio Codec
Format profile                           : LC
Codec ID                                 : mp4a-40-2
Duration                                 : 2h 2mn
Source duration                          : 2h 2mn
Bit rate mode                            : Variable
Bit rate                                 : 155 Kbps
Maximum bit rate                         : 276 Kbps
Channel(s)                               : 2 channels
Channel positions                        : Front: L R
Sampling rate                            : 48.0 KHz
Frame rate                               : 46.875 fps (1024 SPF)
Compression mode                         : Lossy
Stream size                              : 135 MiB (3%)
Source stream size                       : 135 MiB (3%)
Title                                    : English Stereo
Language                                 : English
Default                                  : No
Alternate group                          : 1
Encoded date                             : UTC 2018-05-29 17:16:42
Tagged date                              : UTC 2018-05-29 17:17:56
Fallback From                            : 5

Audio #3
ID                                       : 4
Format                                   : AC-3
Format/Info                              : Audio Coding 3
Codec ID                                 : ac-3
Duration                                 : 2h 2mn
Bit rate mode                            : Constant
Bit rate                                 : 640 Kbps
Channel(s)                               : 6 channels
Channel positions                        : Front: L C R, Side: L R, LFE
Sampling rate                            : 48.0 KHz
Frame rate                               : 31.250 fps (1536 SPF)
Bit depth                                : 16 bits
Compression mode                         : Lossy
Stream size                              : 560 MiB (13%)
Title                                    : Russian DD 5.1
Language                                 : Russian
Service kind                             : Complete Main
Default                                  : Inherited From: 2
Alternate group                          : 1
Encoded date                             : UTC 2018-05-29 17:16:42
Tagged date                              : UTC 2018-05-29 17:17:56
Fallback To                              : 2
Subtitles                                : 6,7

Audio #4
ID                                       : 5
Format                                   : AC-3
Format/Info                              : Audio Coding 3
Codec ID                                 : ac-3
Duration                                 : 2h 2mn
Bit rate mode                            : Constant
Bit rate                                 : 640 Kbps
Channel(s)                               : 6 channels
Channel positions                        : Front: L C R, Side: L R, LFE
Sampling rate                            : 48.0 KHz
Frame rate                               : 31.250 fps (1536 SPF)
Bit depth                                : 16 bits
Compression mode                         : Lossy
Stream size                              : 560 MiB (13%)
Title                                    : English DD 5.1
Language                                 : English
Service kind                             : Complete Main
Default                                  : No
Alternate group                          : 1
Encoded date                             : UTC 2018-05-29 17:16:42
Tagged date                              : UTC 2018-05-29 17:17:56
Fallback To                              : 3

Text #1
ID                                       : 6
Format                                   : Timed Text
Muxing mode                              : sbtl
Codec ID                                 : tx3g
Duration                                 : 2h 2mn
Bit rate mode                            : Variable
Bit rate                                 : 3 bps
Stream size                              : 2.69 KiB (0%)
Title                                    : Russian forced
Language                                 : Russian
Default                                  : Yes
Forced                                   : Yes
Alternate group                          : 2
Encoded date                             : UTC 2018-05-29 17:16:42
Tagged date                              : UTC 2018-05-29 17:17:46
Subtitles For                            : 2,4
Full Alternative                         : 7

Text #2
ID                                       : 7
Format                                   : Timed Text
Muxing mode                              : sbtl
Codec ID                                 : tx3g
Duration                                 : 2h 2mn
Bit rate mode                            : Variable
Bit rate                                 : 112 bps
Stream size                              : 100 KiB (0%)
Title                                    : Russian full
Language                                 : Russian
Default                                  : No
Forced                                   : No
Alternate group                          : 2
Encoded date                             : UTC 2018-05-29 17:16:42
Tagged date                              : UTC 2018-05-29 17:17:52
Subtitles For                            : 2,4
Forced Alternative                       : 6

Text #3
ID                                       : 8
Format                                   : Timed Text
Muxing mode                              : sbtl
Codec ID                                 : tx3g
Duration                                 : 1h 54mn
Bit rate mode                            : Variable
Bit rate                                 : 78 bps
Stream size                              : 64.9 KiB (0%)
Title                                    : English full
Language                                 : English
Default                                  : No
Forced                                   : No
Alternate group                          : 2
Encoded date                             : UTC 2018-05-29 17:16:42
Tagged date                              : UTC 2018-05-29 17:17:51

Text #4
ID                                       : 9
Format                                   : Timed Text
Muxing mode                              : sbtl
Codec ID                                 : tx3g
Duration                                 : 2h 2mn
Bit rate mode                            : Variable
Bit rate                                 : 99 bps
Stream size                              : 89.1 KiB (0%)
Title                                    : Ukrainian full
Language                                 : Ukrainian
Default                                  : No
Forced                                   : No
Alternate group                          : 2
Encoded date                             : UTC 2018-05-29 17:16:42
Tagged date                              : UTC 2018-05-29 17:17:52

Menu #1
00:00:00.000                             : Chapter 1
00:11:42.327                             : Chapter 2
00:24:00.397                             : Chapter 3
00:29:22.719                             : Chapter 4
00:43:31.359                             : Chapter 5
00:50:22.603                             : Chapter 6
00:54:07.286                             : Chapter 7
01:02:18.902                             : Chapter 8
01:07:25.124                             : Chapter 9
01:11:39.629                             : Chapter 10
01:15:10.381                             : Chapter 11
01:20:32.411                             : Chapter 12
01:25:34.963                             : Chapter 13
01:31:17.639                             : Chapter 14
01:40:01.746                             : Chapter 15
01:51:26.221                             : Chapter 16

Menu #2
ID                                       : 10
Codec ID                                 : text
Duration                                 : 2h 2mn
Language                                 : English
Encoded date                             : UTC 2018-05-29 17:17:56
Tagged date                              : UTC 2018-05-29 17:17:56
Menu For                                 : 1
00:00:00.000                             : Chapter 1
00:11:42.327                             : Chapter 2
00:24:00.397                             : Chapter 3
00:29:22.719                             : Chapter 4
00:43:31.359                             : Chapter 5
00:50:22.603                             : Chapter 6
00:54:07.286                             : Chapter 7
01:02:18.902                             : Chapter 8
01:07:25.124                             : Chapter 9
01:11:39.629                             : Chapter 10
01:15:10.381                             : Chapter 11
01:20:32.411                             : Chapter 12
01:25:34.963                             : Chapter 13
01:31:17.639                             : Chapter 14
01:40:01.746                             : Chapter 15
01:51:26.221                             : Chapter 16
Bit rate mode                            : VBR
x264 [info]: frame I:1515  Avg QP:16.88  size:110239
x264 [info]: frame P:57860 Avg QP:19.42  size: 32827
x264 [info]: frame B:116617 Avg QP:21.08  size:  9802
x264 [info]: consecutive B-frames:  2.3% 21.9% 18.1% 57.6%
x264 [info]: mb I  I16..4:  8.5% 60.0% 31.5%
x264 [info]: mb P  I16..4:  1.4%  3.5%  1.7%  P16..4: 50.6% 23.8% 10.7%  0.0%  0.0%    skip: 8.3%
x264 [info]: mb B  I16..4:  0.1%  0.4%  0.2%  B16..8: 48.9%  8.3%  1.3%  direct: 2.8%  skip:38.1%  L0:41.7% L1:52.9% BI: 5.4%
x264 [info]: 8x8 transform intra:55.2% inter:47.4%
x264 [info]: coded y,uvDC,uvAC intra: 76.9% 73.3% 46.5% inter: 22.2% 15.2% 5.9%
x264 [info]: i16 v,h,dc,p: 52% 16%  7% 26%
x264 [info]: i8 v,h,dc,ddl,ddr,vr,hd,vl,hu: 14%  8%  6% 11% 15% 14% 13% 10% 10%
x264 [info]: i4 v,h,dc,ddl,ddr,vr,hd,vl,hu: 21%  8%  3% 10% 14% 13% 12%  9%  8%
x264 [info]: i8c dc,h,v,p: 48% 19% 22% 11%
x264 [info]: ref P L0: 68.4% 18.2% 13.5%
x264 [info]: ref B L0: 76.6% 23.4%
x264 [info]: kb/s:3497.89

Релиз подготовлен для просмотра на Apple TV, iPad, iPhone, iPod Touch.
Для просмотра данного релиза на компьютере с ОС Windows рекомендуется использовать VLC media player

Трекер:  [ 29-Май-2018 21:06 ]

  

Скачать .torrent

Размер .torrent файла 44 KB


Размер: 4.36 GB
Хэш (hash) релиза: 47995d40afec25abc9d358ca695ad976aaa97c71

Еще никто не оставлял запись к записи скачать торрент Роман Израэл, Esq. Roman J. Israel, Esq. . Будь первым!

!Обратная связь