The Orville S01E09 VOSTFR HDTV | Redux Presents: The Vocal Selection Vol.1 | Adam Sandler

Скачать через торрент музыку Легенда о Фра Дьяволо La Leggenda di Fra Diavolo бесплатно без регистрации torrent

Статистика раздачи
Размер:  278 MB   |    Зарегистрирован:  2 месяца 17 дней   |    .torrent скачан:  26 раз   |   
Раздают:  1  
   
загрузка...
 
Автор Сообщение

Galfimbul

avatar Galfimbul


Легенда о Фра Дьяволо / La Leggenda di Fra Diavolo

Название альбома: La Leggenda di Fra Diavolo
Жанр: Score
Композитор: Angelo Francesco Lavagnino under Carlo Savina
Год выпуска диска: 2018
Год выпуска фильма: 1962
Производитель диска: Germany
Издатель (лейбл): Alhambra
Номер по каталогу: A 9046
Аудиокодек: FLAC
Тип рипа: tracks+.cue
Битрейт аудио: lossless
Продолжительность: 01:00:54
Источник: Спасибо, Filex
ID3-теги: да
Наличие сканов в содержимом раздачи: да
01. Angelo Francesco Lavagnino - Main Title (1:53)
02. Angelo Francesco Lavagnino - Fra Diavolo's Father Gets Captured (0:51)
03. Angelo Francesco Lavagnino - The Coach (1:49)
04. Angelo Francesco Lavagnino - Encounter With the Countess (1:28)
05. Angelo Francesco Lavagnino - The Survivors of the Massacre (1:35)
06. Angelo Francesco Lavagnino - Fra Diavolo and Fiamma (Love Scene) (1:33)
07. Angelo Francesco Lavagnino - Riding Along the River (2:15)
08. Angelo Francesco Lavagnino - Preparations for the Battle – The Battle (2:51)
09. Angelo Francesco Lavagnino - The Bandit's Camp (1:41)
10. Angelo Francesco Lavagnino - Fra Diavolo Rides Away (0:49)
11. Angelo Francesco Lavagnino - The Countess Luisa (3:40)
12. Angelo Francesco Lavagnino - Fiamma's Jealousy (1:09)
13. Angelo Francesco Lavagnino - The Countess Arrives (2:20)
14. Angelo Francesco Lavagnino - Reflections – Fiamma Learns the Truth (2:54)
15. Angelo Francesco Lavagnino - Napoleon's Proclamation – In the Mountains (1:38)
16. Angelo Francesco Lavagnino - The Funeral – Fra Diavolo's Decision (4:37)
17. Angelo Francesco Lavagnino - Gathering of the Bandit Troops (1:53)
18. Angelo Francesco Lavagnino - Fiamma Worries About Fra Diavolo – The Bridge (1:24)
19. Angelo Francesco Lavagnino - The Countess and Fra Diavolo's Child (4:49)
20. Angelo Francesco Lavagnino - The French Army Prepares for Battle (1:18)
21. Angelo Francesco Lavagnino - Before and After the Battle (2:34)
22. Angelo Francesco Lavagnino - Tarantella Dance (2:42)
23. Angelo Francesco Lavagnino - On the Run (1:56)
24. Angelo Francesco Lavagnino - Fiamma's Death (2:04)
25. Angelo Francesco Lavagnino - The End of Fra Diavolo (2:13)
26. Angelo Francesco Lavagnino - The Legend (1:23)
Bonus Tracks:
27. Angelo Francesco Lavagnino - Calabrisella mia (Folk Song) (1:24)
28. Angelo Francesco Lavagnino - Raid on Itri (3:02)
29. Angelo Francesco Lavagnino - Colonel Fra Diavolo (0:25)
30. Angelo Francesco Lavagnino - Fanfare #1 (0:19)
31. Angelo Francesco Lavagnino - Fanfare #2 (0:25)
Exact Audio Copy V1.3 from 2. September 2016

EAC extraction logfile from 19. May 2018, 10:14

Angelo Francesco Lavagnino / La Leggenda di Fra Diavolo

Used drive : PLEXTOR CD-R PX-230A Adapter: 1 ID: 0

Read mode : SecureUtilize accurate stream : YesDefeat audio cache : YesMake use of C2 pointers : No

Read offset correction : 738Overread into Lead-In and Lead-Out : NoFill up missing offset samples with silence : YesDelete leading and trailing silent blocks : NoNull samples used in CRC calculations : YesUsed interface : Native Win32 interface for Win NT & 2000Gap handling : Appended to previous track

Used output format : User Defined EncoderSelected bitrate : 1024 kBit/sQuality : HighAdd ID3 tag : NoCommand line compressor : C:\Program Files\Exact Audio Copy\Flac\flac.exeAdditional command line options : -6 -V -T "ARTIST=%artist%" -T "TITLE=%title%" -T "ALBUM=%albumtitle%" -T "DATE=%year%" -T "TRACKNUMBER=%tracknr%" -T "GENRE=%genre%" -T "COMMENT=%comment%" -T "ALBUMARTIST=%albuminterpret%" -T "COMPOSER=%composer%" -T "DISCNUMBER=%cdnumber%" -T "TOTALDISCS=%totalcds%" -T "TOTALTRACKS=%numtracks%" %source% -o %dest%

TOC of the extracted CD

Track | Start | Length | Start sector | End sector --------------------------------------------------------- 1 | 0:00.00 | 1:53.00 | 0 | 8474 2 | 1:53.00 | 0:51.00 | 8475 | 12299 3 | 2:44.00 | 1:49.00 | 12300 | 20474 4 | 4:33.00 | 1:28.00 | 20475 | 27074 5 | 6:01.00 | 1:35.00 | 27075 | 34199 6 | 7:36.00 | 1:33.00 | 34200 | 41174 7 | 9:09.00 | 2:15.00 | 41175 | 51299 8 | 11:24.00 | 2:51.00 | 51300 | 64124 9 | 14:15.00 | 1:41.00 | 64125 | 71699 10 | 15:56.00 | 0:49.00 | 71700 | 75374 11 | 16:45.00 | 3:40.00 | 75375 | 91874 12 | 20:25.00 | 1:09.00 | 91875 | 97049 13 | 21:34.00 | 2:20.00 | 97050 | 107549 14 | 23:54.00 | 2:54.00 | 107550 | 120599 15 | 26:48.00 | 1:38.00 | 120600 | 127949 16 | 28:26.00 | 4:37.00 | 127950 | 148724 17 | 33:03.00 | 1:53.00 | 148725 | 157199 18 | 34:56.00 | 1:24.00 | 157200 | 163499 19 | 36:20.00 | 4:49.00 | 163500 | 185174 20 | 41:09.00 | 1:18.00 | 185175 | 191024 21 | 42:27.00 | 2:34.00 | 191025 | 202574 22 | 45:01.00 | 2:42.00 | 202575 | 214724 23 | 47:43.00 | 1:56.00 | 214725 | 223424 24 | 49:39.00 | 2:04.00 | 223425 | 232724 25 | 51:43.00 | 2:13.00 | 232725 | 242699 26 | 53:56.00 | 1:23.00 | 242700 | 248924 27 | 55:19.00 | 1:24.00 | 248925 | 255224 28 | 56:43.00 | 3:02.00 | 255225 | 268874 29 | 59:45.00 | 0:25.00 | 268875 | 270749 30 | 60:10.00 | 0:19.00 | 270750 | 272174 31 | 60:29.00 | 0:25.00 | 272175 | 274049

Track 1

Filename C:\Ripped by Filex\01 - Main Title.wav

Pre-gap length 0:00:02.00

Peak level 81.3 % Extraction speed 4.1 X Track quality 100.0 % Test CRC 4260AEBF Copy CRC 4260AEBF Track not present in AccurateRip database Copy OK

Track 2

Filename C:\Ripped by Filex\02 - Fra Diavolo's Father Gets Captured.wav

Pre-gap length 0:00:02.00

Peak level 60.9 % Extraction speed 3.1 X Track quality 100.0 % Test CRC A69C234B Copy CRC A69C234B Track not present in AccurateRip database Copy OK

Track 3

Filename C:\Ripped by Filex\03 - The Coach.wav

Pre-gap length 0:00:02.00

Peak level 80.8 % Extraction speed 4.5 X Track quality 100.0 % Test CRC 9131B175 Copy CRC 9131B175 Track not present in AccurateRip database Copy OK

Track 4

Filename C:\Ripped by Filex\04 - Encounter With the Countess.wav

Pre-gap length 0:00:02.00

Peak level 36.1 % Extraction speed 4.1 X Track quality 100.0 % Test CRC 0806EF22 Copy CRC 0806EF22 Track not present in AccurateRip database Copy OK

Track 5

Filename C:\Ripped by Filex\05 - The Survivors of the Massacre.wav

Pre-gap length 0:00:02.00

Peak level 19.2 % Extraction speed 4.3 X Track quality 100.0 % Test CRC EFFC9100 Copy CRC EFFC9100 Track not present in AccurateRip database Copy OK

Track 6

Filename C:\Ripped by Filex\06 - Fra Diavolo and Fiamma (Love Scene).wav

Pre-gap length 0:00:02.00

Peak level 23.5 % Extraction speed 3.9 X Track quality 100.0 % Test CRC 1475CFD5 Copy CRC 1475CFD5 Track not present in AccurateRip database Copy OK

Track 7

Filename C:\Ripped by Filex\07 - Riding Along the River.wav

Pre-gap length 0:00:02.00

Peak level 69.0 % Extraction speed 4.4 X Track quality 100.0 % Test CRC 783F7969 Copy CRC 783F7969 Track not present in AccurateRip database Copy OK

Track 8

Filename C:\Ripped by Filex\08 - Preparations for the Battle – The Battle.wav

Pre-gap length 0:00:02.00

Peak level 81.6 % Extraction speed 4.2 X Track quality 99.9 % Test CRC B9D7F71C Copy CRC B9D7F71C Track not present in AccurateRip database Copy OK

Track 9

Filename C:\Ripped by Filex\09 - The Bandit's Camp.wav

Pre-gap length 0:00:02.00

Peak level 5.0 % Extraction speed 4.4 X Track quality 100.0 % Test CRC 83008A7A Copy CRC 83008A7A Track not present in AccurateRip database Copy OK

Track 10

Filename C:\Ripped by Filex\10 - Fra Diavolo Rides Away.wav

Pre-gap length 0:00:02.00

Peak level 28.4 % Extraction speed 3.4 X Track quality 100.0 % Test CRC 610830B8 Copy CRC 610830B8 Track not present in AccurateRip database Copy OK

Track 11

Filename C:\Ripped by Filex\11 - The Countess Luisa.wav

Pre-gap length 0:00:02.00

Peak level 21.7 % Extraction speed 5.2 X Track quality 100.0 % Test CRC F211BD21 Copy CRC F211BD21 Track not present in AccurateRip database Copy OK

Track 12

Filename C:\Ripped by Filex\12 - Fiamma's Jealousy.wav

Pre-gap length 0:00:02.00

Peak level 25.5 % Extraction speed 3.2 X Track quality 100.0 % Test CRC A1062407 Copy CRC A1062407 Track not present in AccurateRip database Copy OK

Track 13

Filename C:\Ripped by Filex\13 - The Countess Arrives.wav

Pre-gap length 0:00:02.00

Peak level 37.3 % Extraction speed 4.7 X Track quality 100.0 % Test CRC B3A6B8C1 Copy CRC B3A6B8C1 Track not present in AccurateRip database Copy OK

Track 14

Filename C:\Ripped by Filex\14 - Reflections – Fiamma Learns the Truth.wav

Pre-gap length 0:00:02.00

Peak level 43.3 % Extraction speed 4.2 X Track quality 100.0 % Test CRC 12FF6DC4 Copy CRC 12FF6DC4 Track not present in AccurateRip database Copy OK

Track 15

Filename C:\Ripped by Filex\15 - Napoleon's Proclamation – In the Mountains.wav

Pre-gap length 0:00:02.00

Peak level 54.7 % Extraction speed 4.4 X Track quality 100.0 % Test CRC EA6C93FC Copy CRC EA6C93FC Track not present in AccurateRip database Copy OK

Track 16

Filename C:\Ripped by Filex\16 - The Funeral – Fra Diavolo's Decision.wav

Pre-gap length 0:00:02.00

Peak level 46.4 % Extraction speed 4.9 X Track quality 100.0 % Test CRC BF5B5924 Copy CRC BF5B5924 Track not present in AccurateRip database Copy OK

Track 17

Filename C:\Ripped by Filex\17 - Gathering of the Bandit Troops.wav

Pre-gap length 0:00:02.00

Peak level 71.7 % Extraction speed 4.5 X Track quality 100.0 % Test CRC 769C6360 Copy CRC 769C6360 Track not present in AccurateRip database Copy OK

Track 18

Filename C:\Ripped by Filex\18 - Fiamma Worries About Fra Diavolo – The Bridge.wav

Pre-gap length 0:00:02.00

Peak level 32.5 % Extraction speed 2.9 X Track quality 99.8 % Test CRC 578E4356 Copy CRC 578E4356 Track not present in AccurateRip database Copy OK

Track 19

Filename C:\Ripped by Filex\19 - The Countess and Fra Diavolo's Child.wav

Pre-gap length 0:00:02.00

Peak level 35.6 % Extraction speed 4.3 X Track quality 100.0 % Test CRC 21AB74D8 Copy CRC 21AB74D8 Track not present in AccurateRip database Copy OK

Track 20

Filename C:\Ripped by Filex\20 - The French Army Prepares for Battle.wav

Pre-gap length 0:00:02.00

Peak level 59.3 % Extraction speed 3.1 X Track quality 99.8 % Test CRC B1F89B93 Copy CRC B1F89B93 Track not present in AccurateRip database Copy OK

Track 21

Filename C:\Ripped by Filex\21 - Before and After the Battle.wav

Pre-gap length 0:00:02.00

Peak level 60.9 % Extraction speed 3.7 X Track quality 99.9 % Test CRC C62AFD7A Copy CRC C62AFD7A Track not present in AccurateRip database Copy OK

Track 22

Filename C:\Ripped by Filex\22 - Tarantella Dance.wav

Pre-gap length 0:00:02.00

Peak level 63.2 % Extraction speed 3.7 X Track quality 99.9 % Test CRC BA006BDD Copy CRC BA006BDD Track not present in AccurateRip database Copy OK

Track 23

Filename C:\Ripped by Filex\23 - On the Run.wav

Pre-gap length 0:00:02.00

Peak level 9.9 % Extraction speed 3.7 X Track quality 100.0 % Test CRC 76117757 Copy CRC 76117757 Track not present in AccurateRip database Copy OK

Track 24

Filename C:\Ripped by Filex\24 - Fiamma's Death.wav

Pre-gap length 0:00:02.00

Peak level 72.5 % Extraction speed 4.6 X Track quality 100.0 % Test CRC FC5212E9 Copy CRC FC5212E9 Track not present in AccurateRip database Copy OK

Track 25

Filename C:\Ripped by Filex\25 - The End of Fra Diavolo.wav

Pre-gap length 0:00:02.00

Peak level 66.3 % Extraction speed 4.6 X Track quality 100.0 % Test CRC 4BDE5A66 Copy CRC 4BDE5A66 Track not present in AccurateRip database Copy OK

Track 26

Filename C:\Ripped by Filex\26 - The Legend.wav

Pre-gap length 0:00:02.00

Peak level 78.5 % Extraction speed 3.2 X Track quality 99.8 % Test CRC 15C0A0DD Copy CRC 15C0A0DD Track not present in AccurateRip database Copy OK

Track 27

Filename C:\Ripped by Filex\27 - Calabrisella mia (Folk Song).wav

Pre-gap length 0:00:08.00

Peak level 67.0 % Extraction speed 3.2 X Track quality 99.8 % Test CRC 175AD1AC Copy CRC 175AD1AC Track not present in AccurateRip database Copy OK

Track 28

Filename C:\Ripped by Filex\28 - Raid on Itri.wav

Pre-gap length 0:00:02.00

Peak level 34.8 % Extraction speed 5.0 X Track quality 100.0 % Test CRC 0A969812 Copy CRC 0A969812 Track not present in AccurateRip database Copy OK

Track 29

Filename C:\Ripped by Filex\29 - Colonel Fra Diavolo.wav

Pre-gap length 0:00:02.00

Peak level 42.7 % Extraction speed 2.4 X Track quality 100.0 % Test CRC 917F3358 Copy CRC 917F3358 Track not present in AccurateRip database Copy OK

Track 30

Filename C:\Ripped by Filex\30 - Fanfare #1.wav

Pre-gap length 0:00:02.00

Peak level 28.6 % Extraction speed 2.0 X Track quality 100.0 % Test CRC 372CBF4F Copy CRC 372CBF4F Track not present in AccurateRip database Copy OK

Track 31

Filename C:\Ripped by Filex\31 - Fanfare #2.wav

Pre-gap length 0:00:02.00

Peak level 71.5 % Extraction speed 2.1 X Track quality 100.0 % Test CRC C6074DBD Copy CRC C6074DBD Track not present in AccurateRip database Copy OK

None of the tracks are present in the AccurateRip database

No errors occurred

End of status report

---- CUETools DB Plugin V2.1.6

[CTDB TOCID: BWfnIkezvTfRpM7RWnhtmrc_FaM-] foundSubmit result: BWfnIkezvTfRpM7RWnhtmrc_FaM- has been confirmedTrack | CTDB Status 1 | (1/1) Accurately ripped 2 | (1/1) Accurately ripped 3 | (1/1) Accurately ripped 4 | (1/1) Accurately ripped 5 | (1/1) Accurately ripped 6 | (1/1) Accurately ripped 7 | (1/1) Accurately ripped 8 | (1/1) Accurately ripped 9 | (1/1) Accurately ripped 10 | (1/1) Accurately ripped 11 | (1/1) Accurately ripped 12 | (1/1) Accurately ripped 13 | (1/1) Accurately ripped 14 | (1/1) Accurately ripped 15 | (1/1) Accurately ripped 16 | (1/1) Accurately ripped 17 | (1/1) Accurately ripped 18 | (1/1) Accurately ripped 19 | (1/1) Accurately ripped 20 | (1/1) Accurately ripped 21 | (1/1) Accurately ripped 22 | (1/1) Accurately ripped 23 | (1/1) Accurately ripped 24 | (1/1) Accurately ripped 25 | (1/1) Accurately ripped 26 | (1/1) Accurately ripped 27 | (1/1) Accurately ripped 28 | (1/1) Accurately ripped 29 | (1/1) Accurately ripped 30 | (1/1) Accurately ripped 31 | (1/1) Accurately ripped

==== Log checksum 304E507950A659B1878D75085ADDC585E8308F93527DEAED40A0AF61C2C863BC ====
REM GENRE SoundtrackREM DATE 2018REM DISCID C30E461FREM COMMENT "ExactAudioCopy v1.3"PERFORMER "Angelo Francesco Lavagnino"TITLE "La Leggenda di Fra Diavolo"REM COMPOSER "Angelo Francesco Lavagnino"FILE "01 - Main Title.wav" WAVE TRACK 01 AUDIO TITLE "Main Title" PERFORMER "Angelo Francesco Lavagnino" REM COMPOSER "Angelo Francesco Lavagnino" FLAGS DCP INDEX 01 00:00:00 TRACK 02 AUDIO TITLE "Fra Diavolo's Father Gets Captured" PERFORMER "Angelo Francesco Lavagnino" REM COMPOSER "Angelo Francesco Lavagnino" FLAGS DCP INDEX 00 01:51:00FILE "02 - Fra Diavolo's Father Gets Captured.wav" WAVE INDEX 01 00:00:00 TRACK 03 AUDIO TITLE "The Coach" PERFORMER "Angelo Francesco Lavagnino" REM COMPOSER "Angelo Francesco Lavagnino" FLAGS DCP INDEX 00 00:49:00FILE "03 - The Coach.wav" WAVE INDEX 01 00:00:00 TRACK 04 AUDIO TITLE "Encounter With the Countess" PERFORMER "Angelo Francesco Lavagnino" REM COMPOSER "Angelo Francesco Lavagnino" FLAGS DCP INDEX 00 01:47:00FILE "04 - Encounter With the Countess.wav" WAVE INDEX 01 00:00:00 TRACK 05 AUDIO TITLE "The Survivors of the Massacre" PERFORMER "Angelo Francesco Lavagnino" REM COMPOSER "Angelo Francesco Lavagnino" FLAGS DCP INDEX 00 01:26:00FILE "05 - The Survivors of the Massacre.wav" WAVE INDEX 01 00:00:00 TRACK 06 AUDIO TITLE "Fra Diavolo and Fiamma (Love Scene)" PERFORMER "Angelo Francesco Lavagnino" REM COMPOSER "Angelo Francesco Lavagnino" FLAGS DCP INDEX 00 01:33:00FILE "06 - Fra Diavolo and Fiamma (Love Scene).wav" WAVE INDEX 01 00:00:00 TRACK 07 AUDIO TITLE "Riding Along the River" PERFORMER "Angelo Francesco Lavagnino" REM COMPOSER "Angelo Francesco Lavagnino" FLAGS DCP INDEX 00 01:31:00FILE "07 - Riding Along the River.wav" WAVE INDEX 01 00:00:00 TRACK 08 AUDIO TITLE "Preparations for the Battle – The Battle" PERFORMER "Angelo Francesco Lavagnino" REM COMPOSER "Angelo Francesco Lavagnino" FLAGS DCP INDEX 00 02:13:00FILE "08 - Preparations for the Battle – The Battle.wav" WAVE INDEX 01 00:00:00 TRACK 09 AUDIO TITLE "The Bandit's Camp" PERFORMER "Angelo Francesco Lavagnino" REM COMPOSER "Angelo Francesco Lavagnino" FLAGS DCP INDEX 00 02:49:00FILE "09 - The Bandit's Camp.wav" WAVE INDEX 01 00:00:00 TRACK 10 AUDIO TITLE "Fra Diavolo Rides Away" PERFORMER "Angelo Francesco Lavagnino" REM COMPOSER "Angelo Francesco Lavagnino" FLAGS DCP INDEX 00 01:39:00FILE "10 - Fra Diavolo Rides Away.wav" WAVE INDEX 01 00:00:00 TRACK 11 AUDIO TITLE "The Countess Luisa" PERFORMER "Angelo Francesco Lavagnino" REM COMPOSER "Angelo Francesco Lavagnino" FLAGS DCP INDEX 00 00:47:00FILE "11 - The Countess Luisa.wav" WAVE INDEX 01 00:00:00 TRACK 12 AUDIO TITLE "Fiamma's Jealousy" PERFORMER "Angelo Francesco Lavagnino" REM COMPOSER "Angelo Francesco Lavagnino" FLAGS DCP INDEX 00 03:38:00FILE "12 - Fiamma's Jealousy.wav" WAVE INDEX 01 00:00:00 TRACK 13 AUDIO TITLE "The Countess Arrives" PERFORMER "Angelo Francesco Lavagnino" REM COMPOSER "Angelo Francesco Lavagnino" FLAGS DCP INDEX 00 01:07:00FILE "13 - The Countess Arrives.wav" WAVE INDEX 01 00:00:00 TRACK 14 AUDIO TITLE "Reflections – Fiamma Learns the Truth" PERFORMER "Angelo Francesco Lavagnino" REM COMPOSER "Angelo Francesco Lavagnino" FLAGS DCP INDEX 00 02:18:00FILE "14 - Reflections – Fiamma Learns the Truth.wav" WAVE INDEX 01 00:00:00 TRACK 15 AUDIO TITLE "Napoleon's Proclamation – In the Mountains" PERFORMER "Angelo Francesco Lavagnino" REM COMPOSER "Angelo Francesco Lavagnino" FLAGS DCP INDEX 00 02:52:00FILE "15 - Napoleon's Proclamation – In the Mountains.wav" WAVE INDEX 01 00:00:00 TRACK 16 AUDIO TITLE "The Funeral – Fra Diavolo's Decision" PERFORMER "Angelo Francesco Lavagnino" REM COMPOSER "Angelo Francesco Lavagnino" FLAGS DCP INDEX 00 01:36:00FILE "16 - The Funeral – Fra Diavolo's Decision.wav" WAVE INDEX 01 00:00:00 TRACK 17 AUDIO TITLE "Gathering of the Bandit Troops" PERFORMER "Angelo Francesco Lavagnino" REM COMPOSER "Angelo Francesco Lavagnino" FLAGS DCP INDEX 00 04:35:00FILE "17 - Gathering of the Bandit Troops.wav" WAVE INDEX 01 00:00:00 TRACK 18 AUDIO TITLE "Fiamma Worries About Fra Diavolo – The Bridge" PERFORMER "Angelo Francesco Lavagnino" REM COMPOSER "Angelo Francesco Lavagnino" FLAGS DCP INDEX 00 01:51:00FILE "18 - Fiamma Worries About Fra Diavolo – The Bridge.wav" WAVE INDEX 01 00:00:00 TRACK 19 AUDIO TITLE "The Countess and Fra Diavolo's Child" PERFORMER "Angelo Francesco Lavagnino" REM COMPOSER "Angelo Francesco Lavagnino" FLAGS DCP INDEX 00 01:22:00FILE "19 - The Countess and Fra Diavolo's Child.wav" WAVE INDEX 01 00:00:00 TRACK 20 AUDIO TITLE "The French Army Prepares for Battle" PERFORMER "Angelo Francesco Lavagnino" REM COMPOSER "Angelo Francesco Lavagnino" FLAGS DCP INDEX 00 04:47:00FILE "20 - The French Army Prepares for Battle.wav" WAVE INDEX 01 00:00:00 TRACK 21 AUDIO TITLE "Before and After the Battle" PERFORMER "Angelo Francesco Lavagnino" REM COMPOSER "Angelo Francesco Lavagnino" FLAGS DCP INDEX 00 01:16:00FILE "21 - Before and After the Battle.wav" WAVE INDEX 01 00:00:00 TRACK 22 AUDIO TITLE "Tarantella Dance" PERFORMER "Angelo Francesco Lavagnino" REM COMPOSER "Angelo Francesco Lavagnino" FLAGS DCP INDEX 00 02:32:00FILE "22 - Tarantella Dance.wav" WAVE INDEX 01 00:00:00 TRACK 23 AUDIO TITLE "On the Run" PERFORMER "Angelo Francesco Lavagnino" REM COMPOSER "Angelo Francesco Lavagnino" FLAGS DCP INDEX 00 02:40:00FILE "23 - On the Run.wav" WAVE INDEX 01 00:00:00 TRACK 24 AUDIO TITLE "Fiamma's Death" PERFORMER "Angelo Francesco Lavagnino" REM COMPOSER "Angelo Francesco Lavagnino" FLAGS DCP INDEX 00 01:54:00FILE "24 - Fiamma's Death.wav" WAVE INDEX 01 00:00:00 TRACK 25 AUDIO TITLE "The End of Fra Diavolo" PERFORMER "Angelo Francesco Lavagnino" REM COMPOSER "Angelo Francesco Lavagnino" FLAGS DCP INDEX 00 02:02:00FILE "25 - The End of Fra Diavolo.wav" WAVE INDEX 01 00:00:00 TRACK 26 AUDIO TITLE "The Legend" PERFORMER "Angelo Francesco Lavagnino" REM COMPOSER "Angelo Francesco Lavagnino" FLAGS DCP INDEX 00 02:11:00FILE "26 - The Legend.wav" WAVE INDEX 01 00:00:00 TRACK 27 AUDIO TITLE "Calabrisella mia (Folk Song)" PERFORMER "Angelo Francesco Lavagnino" REM COMPOSER "Angelo Francesco Lavagnino" FLAGS DCP INDEX 00 01:15:00FILE "27 - Calabrisella mia (Folk Song).wav" WAVE INDEX 01 00:00:00 TRACK 28 AUDIO TITLE "Raid on Itri" PERFORMER "Angelo Francesco Lavagnino" REM COMPOSER "Angelo Francesco Lavagnino" FLAGS DCP INDEX 00 01:22:00FILE "28 - Raid on Itri.wav" WAVE INDEX 01 00:00:00 TRACK 29 AUDIO TITLE "Colonel Fra Diavolo" PERFORMER "Angelo Francesco Lavagnino" REM COMPOSER "Angelo Francesco Lavagnino" FLAGS DCP INDEX 00 03:00:00FILE "29 - Colonel Fra Diavolo.wav" WAVE INDEX 01 00:00:00 TRACK 30 AUDIO TITLE "Fanfare #1" PERFORMER "Angelo Francesco Lavagnino" REM COMPOSER "Angelo Francesco Lavagnino" FLAGS DCP INDEX 00 00:23:00FILE "30 - Fanfare #1.wav" WAVE INDEX 01 00:00:00 TRACK 31 AUDIO TITLE "Fanfare #2" PERFORMER "Angelo Francesco Lavagnino" REM COMPOSER "Angelo Francesco Lavagnino" FLAGS DCP INDEX 00 00:17:00FILE "31 - Fanfare #2.wav" WAVE INDEX 01 00:00:00


RG Soundtracks


Трекер:  [ 29-Май-2018 18:36 ]

  

Скачать .torrent

Размер .torrent файла 14 KB


Размер: 278 MB
Хэш (hash) релиза: 515dc8e92dc18e6c2773c823cf2575642b7fd3ba

Еще никто не оставлял запись к записи скачать торрент Легенда о Фра Дьяволо La Leggenda di Fra Diavolo . Будь первым!

!Обратная связь