The Water Horse (2007) Hindi Dubbed Full Movie Watch Online The Water Horse: Legend of the Deep (2007) Hindi Dubbed Full Movie Watch Online in HD Print Quality Free Download,Full Movie The Water Horse: Legend of the Deep (2007) Hindi Dubbed Watch Online in DVD Print Quality Download.A lonely boy discovers a mysterious egg that hatches a sea creature of Scottish legend. The Water Horse (2007) Hindi Dubbed Full Movie Free ... | English Grammar For Economics And Business | French Polynesia

Скачать через торрент Мельник Серии: 1-2 из 16 Фильм бесплатно в хорошем качестве torrent

Скачивайте на UnionPeer.org фильмы через торрент без регистрации. Новинки кино в хорошем качестве через торрент. На UnionPeer.org можно скачать через торрент фильмы 2014 и 2015 годов. Самые новые фильмы.

Скачать торрент Мельник Серии: 1-2 из 16 бесплатно через .torrent фильм мультфильм сериал

Статистика раздачи
Размер:  3.98 GB   |    Зарегистрирован:  23 дня   |    .torrent скачан:  32 раза   |   
Раздают:  1  
   
загрузка...
 
Автор Сообщение

Galfimbul

avatar Galfimbul


Мельник

Год выпуска: 2018
Производство: Платформа кино
Жанр: детектив, боевик
Продолжительность: ~00:46:00 серия
Субтитры: нет

Режиссёр: Станислав Мареев

В ролях: Сергей Шнырёв, Сергей Паршин, Александр Константинов, Роман Грибков, Игорь Черневич, Наталья Высочанская, Вячеслав Гасай, Юрий Ковалёв, Антон Чернов, Сергей Воробьёв , Даниил Кокин, Сергей Красавин, Татьяна Захарова, Оксана Базилевич, Алла Еминцева, Любовь Виролайнен (мл.), Диана Дезмари, Артур Федынко, Виталий Коваленко, Алиса Миронова, Максим Миронов, Руслан Миколенко, Мария Фефилова, Ричард Ардашин, Андрей Горбачёв
Описание: После тяжелого ранения, бывший майор Роман Мельник дослуживает «выслугу» до пенсии в конвойных войсках ФСИН в должности начальника выездного караула. В одну из смен он сопровождает партию особо опасных преступников в специальном вагоне поезда. Остановившись на одной из станций, Мельник по служебной необходимости отлучается. В это время в вагон проникает неизвестный и, нейтрализовав конвой, освобождает 13 заключенных. Руководство ФСб просит Мельника возглавить группу по поимке сбежавших преступников, мотивируя это тем, что расследование не должно получить огласки в прессе, так как может вызвать панику среди населения.

Реклама: Нет.

Кинопоиск
Все раздачи сериала
Sample

Качество: WEBRip 1080p - Nikolspup
Формат: MKV
Видео кодек: H.264
Аудио кодек: AC3
Видео: MPEG4 AVC Video, H264, 16:9, 1920x1080, 25 fps, ~6000 kbps, 0.116 bit/pixel
Аудио: AC3 Dolby Digital, 48.0 kHz, 2/0 (L,R) ch, 192 kbps
Раздача ведётся путём добавления новых серий, при каждом добавлении создаётся новый торрент. Чтобы начать докачку новой серии, пользователям необходимо сделать следующее:

- Остановить скачивание.
- Удалить старый торрент у себя из клиента (старые серии удалять не надо).
- Скачать новый торрент и запустить его у себя в клиенте вместо старого, при этом указать клиенту путь в старую папку куда и должно происходить скачивание новых серий.

Ваш клиент при этом должен произвести хеширование (проверку) старой папки (если не производит сам - помогите ему сделать это), и будет докачивать только те серии которых у вас ещё нет. Старые серии при этом не удаляются, а продолжают раздаваться!
Если вы уже удалили старые серии, то предотвратить повторную закачку старых серий можно, отжав галочку в соответствующих местах при запуске нового торрента. По возможности, желательно не удалять старые серии как можно дольше, чтобы релизер не столько продолжал раздавать старые серии, а смог сконцентрироваться на новых.
General
Unique ID : 238108301337526058007928054019724098478 (0xB321FDA223DFB4179B755FE83C033BAE)
Complete name : D:\Melnik.2018.WEB-DL(1080p).Nikolspup\Melnik.(01.seriya.iz.16).2018.WEB-DL(1080p).Nikolspup.mkv
Format : Matroska
Format version : Version 4 / Version 2
File size : 2.00 GiB
Duration : 46 min 32 s
Overall bit rate mode : Constant
Overall bit rate : 6 137 kb/s
Encoded date : UTC 2018-05-28 19:38:37
Writing application : mkvmerge v7.8.0 ('River Man') 32bit built on Mar 27 2015 16:18:02
Writing library : libebml v1.3.1 + libmatroska v1.4.2

Video
ID : 1
Format : AVC
Format/Info : Advanced Video Codec
Format profile : [email protected]
Format settings : 2 Ref Frames
Format settings, CABAC : No
Format settings, ReFrames : 2 frames
Codec ID : V_MPEG4/ISO/AVC
Duration : 46 min 32 s
Bit rate mode : Constant
Bit rate : 6 000 kb/s
Width : 1 920 pixels
Height : 1 080 pixels
Display aspect ratio : 16:9
Frame rate mode : Constant
Frame rate : 25.000 FPS
Standard : PAL
Color space : YUV
Chroma subsampling : 4:2:0
Bit depth : 8 bits
Scan type : Progressive
Bits/(Pixel*Frame) : 0.116
Stream size : 1.93 GiB (97%)
Default : Yes
Forced : No
Color range : Limited
Color primaries : BT.709
Transfer characteristics : BT.709
Matrix coefficients : BT.709

Audio
ID : 2
Format : AC-3
Format/Info : Audio Coding 3
Codec ID : A_AC3
Duration : 46 min 32 s
Bit rate mode : Constant
Bit rate : 192 kb/s
Channel(s) : 2 channels
Channel positions : Front: L R
Sampling rate : 48.0 kHz
Frame rate : 31.250 FPS (1536 SPF)
Bit depth : 16 bits
Compression mode : Lossy
Stream size : 63.9 MiB (3%)
Language : Russian
Service kind : Complete Main
Default : Yes
Forced : No


Трекер:  [ 29-Май-2018 16:42 ]

  

Скачать .torrent

Размер .torrent файла 20 KB


Размер: 3.98 GB
Хэш (hash) релиза: ea7d1b30118432330127a9fe428e02f70f770f0b
Подписка на обновления:

Торренты, похожие на Мельник Серии: 1-2 из 16 скачать торрент

Форум Название Автор Размер S L Добавлен
Российские сериалы ·· Мельник / Серии: 1-2 из 16 (Станислав Мареев) [2018, Боевик, SATRip] Galfimbul 12751708161.19 GB 0 0 1527570741

08:12

29-Май-18

Еще никто не оставлял запись к записи скачать торрент Мельник Серии: 1-2 из 16 . Будь первым!

!Обратная связь