WWE Straight to the Source S01E03 | UFC 223 4/7/18 | WWE Tough Enough S06E10 - 8/25/15 Finale

Скачать через торрент Сфинксы северных ворот Серии: 1-4 из 4 Фильм бесплатно в хорошем качестве torrent

Скачивайте на UnionPeer.org фильмы через торрент без регистрации. Новинки кино в хорошем качестве через торрент. На UnionPeer.org можно скачать через торрент фильмы 2014 и 2015 годов. Самые новые фильмы.

Скачать торрент Сфинксы северных ворот Серии: 1-4 из 4 бесплатно через .torrent фильм мультфильм сериал

Статистика раздачи
Размер:  6.68 GB   |    Зарегистрирован:  26 дней   |    .torrent скачан:  37 раз   |   
Раздают:  1  
   
загрузка...
 
Автор Сообщение

Galfimbul

avatar Galfimbul


Сфинксы северных ворот

Год выпуска: 2018
Производство: Марс Медиа, Синема Парк
Жанр: детектив
Продолжительность: ~00:45:00 серия
Субтитры: нет

Режиссёр: Олег Штром

В ролях: Елена Великанова, Максим Щёголев, Любовь Германова, Валерий Сторожик, Сергей Подольный, Александр Никитин, Сергей Барышев, Виталий Кудрявцев

Описание: Судьба сталкивает Грекова с давним соперником – Павлом Роговым, которого он много лет назад засадил за решётку. К тому же когда-то любимая девушка Рогова стала женой Грекова… Выйдя из тюрьмы, Павел вновь встречается с Верой. Он утверждает, что не совершал преступления, за которое отсидел срок, и подозревает, что Греков подтасовал материалы дела. И вот теперь Павел убит, все улики указывают на Грекова, а сам он не может вспомнить ничего о событиях того рокового вечера… Саше предстоит узнать много нового о прошлом своего любимого мужчины, чтобы снять с него страшные обвинения. И ещё кровавая семейная тайна тесно переплетена с судьбой шедевра Ван Дейка.

Реклама: Нет.



Sample

Качество: WEBRip 1080p - Getty
Формат: MKV
Видео кодек: H.264
Аудио кодек: AC3
Видео: MPEG4 AVC Video, H264, 16:9, 1920x1080, 25 fps, ~5100 kbps, 0.099 bit/pixel
Аудио: AC3 Dolby Digital, 48.0 kHz, 2/0 (L,R) ch, 192 kbps
General
Unique ID : 233600040763289588060071711267488297702 (0xAFBDBB39DBEE1DB0BB0E98FF5CF872E6)
Complete name : D:\Sfinksy.severnyh.vorot.2018.WEB-DL.(1080p).Getty\Sfinksy.severnyh.vorot.e01.2018.WEB-DL.(1080p).Getty.mkv
Format : Matroska
Format version : Version 4 / Version 2
File size : 1.68 GiB
Duration : 45 min 25 s
Overall bit rate : 5 311 kb/s
Movie name : Sfinksy.severnyh.vorot.e01.2018.WEB-DL.(1080p).Getty
Encoded date : UTC 2018-05-27 10:31:45
Writing application : mkvmerge v7.8.0 ('River Man') 32bit built on Mar 27 2015 16:18:02
Writing library : libebml v1.3.1 + libmatroska v1.4.2

Video
ID : 1
Format : AVC
Format/Info : Advanced Video Codec
Format profile : [email protected]
Format settings : CABAC / 4 Ref Frames
Format settings, CABAC : Yes
Format settings, ReFrames : 4 frames
Codec ID : V_MPEG4/ISO/AVC
Duration : 45 min 25 s
Bit rate : 5 117 kb/s
Width : 1 920 pixels
Height : 1 080 pixels
Display aspect ratio : 16:9
Frame rate mode : Constant
Frame rate : 25.000 FPS
Color space : YUV
Chroma subsampling : 4:2:0
Bit depth : 8 bits
Scan type : Progressive
Bits/(Pixel*Frame) : 0.099
Stream size : 1.62 GiB (96%)
Default : Yes
Forced : No

Audio
ID : 2
Format : AC-3
Format/Info : Audio Coding 3
Codec ID : A_AC3
Duration : 45 min 25 s
Bit rate mode : Constant
Bit rate : 192 kb/s
Channel(s) : 2 channels
Channel positions : Front: L R
Sampling rate : 48.0 kHz
Frame rate : 31.250 FPS (1536 SPF)
Bit depth : 16 bits
Compression mode : Lossy
Stream size : 62.4 MiB (4%)
Service kind : Complete Main
Default : Yes
Forced : No


Трекер:  [ 29-Май-2018 16:42 ]

  

Скачать .torrent

Размер .torrent файла 34 KB


Размер: 6.68 GB
Хэш (hash) релиза: b55fa443dc8293c2f65f028ef50e685013e62321
Подписка на обновления:

Торренты, похожие на Сфинксы северных ворот Серии: 1-4 из 4 скачать торрент

Форум Название Автор Размер S L Добавлен
Российские сериалы ·· Сфинксы северных ворот / Серии: 1-4 из 4 (Олег Штром) [2018,детектив,экранизация, SATRip-AVC] aleksan55 22205046072.07 GB 0 0 1527346948

18:02

26-Май-18

Российские сериалы ·· Сфинксы северных ворот / Сезон: 1 / Серии: 1 - 4 из 4 (Олег Штром) [2018, детектив, экранизация, WEBRip] Galfimbul 23127838722.15 GB 0 0 1527424941

15:42

27-Май-18

Еще никто не оставлял запись к записи скачать торрент Сфинксы северных ворот Серии: 1-4 из 4 . Будь первым!

!Обратная связь