Poissons et Fruits de mer | Polars historiques | Police Procedurals

Скачать через торрент Гурзуф Серии: 1-2 из 8 Фильм бесплатно в хорошем качестве torrent

Скачивайте на UnionPeer.org фильмы через торрент без регистрации. Новинки кино в хорошем качестве через торрент. На UnionPeer.org можно скачать через торрент фильмы 2014 и 2015 годов. Самые новые фильмы.

Скачать торрент Гурзуф Серии: 1-2 из 8 бесплатно через .torrent фильм мультфильм сериал

Статистика раздачи
Размер:  4.2 GB   |    Зарегистрирован:  23 дня   |    .torrent скачан:  45 раз   |   
Раздают:  1  
   
загрузка...
 
Автор Сообщение

Galfimbul

avatar Galfimbul


Гурзуф

Год выпуска: 2018
Производство: Epic Media
Жанр: детектив, криминал, история
Продолжительность: ~00:46:00 серия
Субтитры: нет

Режиссёр: Дмитрий Константинов

В ролях: Пётр Фёдоров, Евгений Антропов, Дарья Урсуляк, Павел Чинарёв, Мария Смольникова, Виталия Корниенко, Александр Бухаров, Тимур Бадалбейли, Константин Чепурин, Елена Нестерова, Алексей Комашко, Дмитрий Поднозов, Ольга Ергина, Вячеслав Чепурченко, Юлия Харьковская, Шамхал Хачатурян

Описание: Июнь 1965 года. Порой жёстко, в обход закона, порой договариваясь с преступниками, Родион Стоцкий за три года работы начальником милиции превратил Гурзуф в самое спокойное место Южного берега Крыма. Здесь даже пляжные мошенники предпочитают не работать. Но в начале нового курортного сезона за пару дней происходит сразу несколько преступлений: расстреливают блатных в такси; грабят грузовик, который везёт зарплату для работников «Артека»; совершают разбойное нападение на подпольное игорное заведение. Стоцкий понимает, что все эти преступления связаны, и он должен найти преступников в самые кратчайшие сроки. В расследовании ему помогает старый знакомый Тарас Зайцев, который перебрался с семьёй в Крым следом за Стоцким.

Реклама: Нет.

Кинопоиск

Sample

Качество: HDTV 1080i - olegka7373 (GeneralFilm)
Формат: TS
Видео кодек: AVC
Аудио кодек: AC3, MP2
Видео: MPEG4 AVC Video, H264, 16:9, 1920x1080, 25 fps, ~5300 kbps, 0.102 bit/pixel
Аудио: AC3, 6 ch, 384 kbps, 16 bits, 48.0 KHz
Аудио 2: MP2, 2 ch, 192 kbps, 16 bits, 48.0 KHz
Раздача ведётся путём добавления новых серий, при каждом добавлении создаётся новый торрент. Чтобы начать докачку новой серии, пользователям необходимо сделать следующее:

- Остановить скачивание.
- Удалить старый торрент у себя из клиента (старые серии удалять не надо).
- Скачать новый торрент и запустить его у себя в клиенте вместо старого, при этом указать клиенту путь в старую папку куда и должно происходить скачивание новых серий.

Ваш клиент при этом должен произвести хеширование (проверку) старой папки (если не производит сам - помогите ему сделать это), и будет докачивать только те серии которых у вас ещё нет. Старые серии при этом не удаляются, а продолжают раздаваться!
Если вы уже удалили старые серии, то предотвратить повторную закачку старых серий можно, отжав галочку в соответствующих местах при запуске нового торрента. По возможности, желательно не удалять старые серии как можно дольше, чтобы релизер не столько продолжал раздавать старые серии, а смог сконцентрироваться на новых.
General
ID : 1 (0x1)
Complete name : D:\Gurzuf.HDTV(1080i).GeneralFilm\01.Gurzuf.HDTV(1080i).GeneralFilm.ts
Format : MPEG-TS
File size : 2.01 GiB
Duration : 46 min 33 s
Overall bit rate mode : Variable
Overall bit rate : 6 185 kb/s

Video
ID : 4121 (0x1019)
Menu ID : 80 (0x50)
Format : AVC
Format/Info : Advanced Video Codec
Format profile : [email protected]
Format settings : CABAC / 3 Ref Frames
Format settings, CABAC : Yes
Format settings, ReFrames : 3 frames
Format settings, GOP : M=4, N=32
Codec ID : 27
Duration : 46 min 32 s
Bit rate : 5 298 kb/s
Width : 1 920 pixels
Height : 1 080 pixels
Display aspect ratio : 16:9
Frame rate : 25.000 FPS
Standard : Component
Color space : YUV
Chroma subsampling : 4:2:0
Bit depth : 8 bits
Scan type : Interlaced
Scan type, store method : Separated fields
Scan order : Top Field First
Bits/(Pixel*Frame) : 0.102
Stream size : 1.72 GiB (86%)
Color range : Limited
Color primaries : BT.709
Transfer characteristics : BT.709
Matrix coefficients : BT.709

Audio #1
ID : 4124 (0x101C)
Menu ID : 80 (0x50)
Format : AC-3
Format/Info : Audio Coding 3
Codec ID : 6
Duration : 46 min 32 s
Bit rate mode : Constant
Bit rate : 384 kb/s
Channel(s) : 6 channels
Channel positions : Front: L C R, Side: L R, LFE
Sampling rate : 48.0 kHz
Frame rate : 31.250 FPS (1536 SPF)
Bit depth : 16 bits
Compression mode : Lossy
Delay relative to video : -80 ms
Stream size : 128 MiB (6%)
Language : Russian
Service kind : Complete Main

Audio #2
ID : 4125 (0x101D)
Menu ID : 80 (0x50)
Format : MPEG Audio
Format version : Version 1
Format profile : Layer 2
Codec ID : 3
Duration : 46 min 32 s
Bit rate mode : Constant
Bit rate : 192 kb/s
Channel(s) : 2 channels
Sampling rate : 48.0 kHz
Frame rate : 41.667 FPS (1152 SPF)
Compression mode : Lossy
Delay relative to video : -80 ms
Stream size : 63.9 MiB (3%)
Language : Russian


Трекер:  [ 29-Май-2018 16:12 ]

  

Скачать .torrent

Размер .torrent файла 21 KB


Размер: 4.2 GB
Хэш (hash) релиза: f11f00000966431b85e1e96b79ef290010f61f53
Подписка на обновления:

Торренты, похожие на Гурзуф Серии: 1-2 из 8 скачать торрент

Форум Название Автор Размер S L Добавлен
Российские сериалы ·· Гурзуф / Серии: 1-2 из 8 (Дмитрий Константинов) [2018, детектив, криминал, история, HDTVRip 720p] Galfimbul 26329085922.45 GB 0 0 1527599550

16:12

29-Май-18

Еще никто не оставлял запись к записи скачать торрент Гурзуф Серии: 1-2 из 8 . Будь первым!

!Обратная связь