Dexter’s Laboratory: Ego Trip (1999) | Phil LaMarr | Paranoïa

Скачать через торрент Утиные истории: Заветная лампа Сокровище потерянной лампы Фильм бесплатно в хорошем качестве torrent

Скачивайте на UnionPeer.org фильмы через торрент без регистрации. Новинки кино в хорошем качестве через торрент. На UnionPeer.org можно скачать через торрент фильмы 2014 и 2015 годов. Самые новые фильмы.

Скачать торрент Утиные истории: Заветная лампа Сокровище потерянной лампы бесплатно через .torrent фильм мультфильм сериал

Статистика раздачи
Размер:  1.46 GB   |    Зарегистрирован:  25 дней   |    .torrent скачан:  37 раз   |   
Раздают:  1  
   
загрузка...
 
Автор Сообщение

Galfimbul

avatar Galfimbul


Заветная лампа / Сокровище потерянной лампы / DuckTales: The Movie - Treasure of the Lost Lamp

Страна: США, Франция
Жанр: фэнтези, комедия, приключения, семейный
Продолжительность: 01:13:51
Год выпуска: 1990
Перевод 1: Профессиональный (дублированный) Невафильм
Перевод 2: Профессиональный (двухголосый закадровый) Пётр Гланц и Татьяна Казакова
Перевод 3: Авторский (одноголосый закадровый) Вартан Дохалов
Русские субтитры: есть

Режиссёр: Боб Хэчкок / Bob Hathcock
Роли озвучивали: Алан Янг, Кристофер Ллойд, Рип Тейлор, Теренс МакГоверн, Расси Тейлор, Джун Форэй, Чак МакКанн, Джоан Гербер, Ричард Либертини, Чарльз Адлер ...

Описание: Запрыгивайте на верблюда, хватайте карту и приготовьтесь к захватывающему веселому приключению вместе с любимыми пернатыми друзьями Скруджем МакДаком, Хьюи, Дьюи, Луи и Веббигейл Вандеркваком!

Присоединяйтесь к команде Утиных Историй, пересекающих египетскую пустыню в бесстрашном поиске легендарных сокровищ Колли Бабы. Захватывающие моменты будут преследовать главных героев на каждом шагу, по мере приближения к сказочным сокровищам, а злой маг Мерлок будет идти по пятам. Но смелые утки и не могли предположить, что вместе с сокровищами найдут волшебную лампу с настоящим джином, исполняющим желания!

Наполненный весельем, приключениями и обожаемыми героями, фильм «Утиные истории: Заветная лампа» — истинная классика студии Disney, которой насладится вся Ваша семья!

Семпл: http://sendfile.su/1422322

Качество: WEB-DLRip-AVC
Формат: MKV
Видео: 852x512 (1.664), 23.976 fps, AVC, ~2250 Kbps, 0.215 bits/pixel
Аудио 1: Russian, 48.0 KHz, AC3, 2 ch, 192 Kbps - Невафильм
Аудио 2: Russian, 48.0 KHz, AC3, 2 ch, 192 Kbps - Пётр Гланц и Татьяна Казакова
Аудио 3: Russian, 48.0 KHz, AC3, 1 ch, 192 Kbps - Вартан Дохалов
Субтитры: русские

avs4x26x.exe: -L x264_64.exe --pass 2 --bitrate 2250 --preset medium --tune film --ref 10 --merange 32 --bframes 10 --direct auto --b-adapt 2 --trellis 2 --no-fast-pskip --no-dct-decimate --psy-rd 1.00:0.20 --subme 10 --me umh --no-mbtree --vbv-bufsize 62500 --vbv-maxrate 50000 --partitions p8x8,b8x8,i4x4,i8x8 --sar 1:1 --stats

raw [info]: 852x512p 1:1 @ 24000/1001 fps (cfr)
x264 [info]: using SAR=1/1
x264 [info]: using cpu capabilities: MMX2 SSE2Fast LZCNT
x264 [info]: profile High, level 4.1
x264 [info]: frame I:914 Avg QP:20.16 size: 79612
x264 [info]: frame P:25800 Avg QP:23.13 size: 24381
x264 [info]: frame B:79516 Avg QP:24.02 size: 6837
x264 [info]: consecutive B-frames: 3.7% 4.3% 8.9% 30.8% 19.5% 13.8% 6.5% 8.2% 2.8% 0.9% 0.6%
x264 [info]: mb I I16..4: 22.8% 47.5% 29.7%
x264 [info]: mb P I16..4: 0.8% 11.7% 3.7% P16..4: 38.8% 24.2% 14.3% 0.0% 0.0% skip: 6.6%
x264 [info]: mb B I16..4: 0.0% 0.7% 0.4% B16..8: 36.4% 8.9% 3.3% direct: 6.4% skip:43.8% L0:48.1% L1:44.8% BI: 7.1%
x264 [info]: 8x8 transform intra:67.4% inter:52.2%
x264 [info]: direct mvs spatial:97.6% temporal:2.4%
x264 [info]: coded y,uvDC,uvAC intra: 92.8% 82.8% 48.9% inter: 24.5% 26.0% 5.8%
x264 [info]: i16 v,h,dc,p: 20% 11% 42% 27%
x264 [info]: i8 v,h,dc,ddl,ddr,vr,hd,vl,hu: 6% 8% 13% 11% 14% 11% 13% 10% 14%
x264 [info]: i4 v,h,dc,ddl,ddr,vr,hd,vl,hu: 8% 11% 3% 11% 15% 13% 14% 11% 14%
x264 [info]: i8c dc,h,v,p: 37% 29% 20% 14%
x264 [info]: Weighted P-Frames: Y:13.1% UV:5.6%
x264 [info]: ref P L0: 41.5% 13.9% 17.0% 6.8% 5.9% 4.2% 4.0% 2.2% 2.2% 2.0% 0.4% 0.0%
x264 [info]: ref B L0: 65.4% 13.7% 7.6% 4.0% 2.9% 2.5% 2.1% 1.1% 0.6%
x264 [info]: ref B L1: 93.2% 6.8%
x264 [info]: kb/s:2248.72

x264 [total]: encoded 106230 frames, 9.44 fps, 2248.73 kb/s
GeneralUnique ID : 328605785467949161571363948998866493322 (0xF7372C162966FCC25277E8485577DF8A)Complete name : C:\DuckTales the Movie - Treasure of the Lost Lamp.mkvFormat : MatroskaFormat version : Version 4 / Version 2File size : 1.46 GiBDuration : 1 h 13 minOverall bit rate : 2 827 kb/sEncoded date : UTC 2018-05-29 04:10:18Writing application : mkvmerge v23.0.0 ('The Bride Said No') 64-bitWriting library : libebml v1.3.6 + libmatroska v1.4.9

VideoID : 1Format : AVCFormat/Info : Advanced Video CodecFormat profile : [email protected] settings : CABAC / 10 Ref FramesFormat settings, CABAC : YesFormat settings, ReFrames : 10 framesCodec ID : V_MPEG4/ISO/AVCDuration : 1 h 13 minBit rate : 2 250 kb/sWidth : 852 pixelsHeight : 512 pixelsDisplay aspect ratio : 5:3Frame rate mode : ConstantFrame rate : 23.976 (24000/1001) FPSColor space : YUVChroma subsampling : 4:2:0Bit depth : 8 bitsScan type : ProgressiveBits/(Pixel*Frame) : 0.215Stream size : 1.16 GiB (80%)Writing library : x264 core 152 r2851 ba24899Encoding settings : cabac=1 / ref=10 / deblock=1:-1:-1 / analyse=0x3:0x113 / me=umh / subme=10 / psy=1 / psy_rd=1.00:0.20 / mixed_ref=1 / me_range=32 / chroma_me=1 / trellis=2 / 8x8dct=1 / cqm=0 / deadzone=21,11 / fast_pskip=0 / chroma_qp_offset=-3 / threads=6 / lookahead_threads=1 / sliced_threads=0 / nr=0 / decimate=0 / interlaced=0 / bluray_compat=0 / constrained_intra=0 / bframes=10 / b_pyramid=2 / b_adapt=2 / b_bias=0 / direct=3 / weightb=1 / open_gop=0 / weightp=2 / keyint=250 / keyint_min=23 / scenecut=40 / intra_refresh=0 / rc_lookahead=40 / rc=2pass / mbtree=0 / bitrate=2250 / ratetol=1.0 / qcomp=0.60 / qpmin=0 / qpmax=69 / qpstep=4 / cplxblur=20.0 / qblur=0.5 / vbv_maxrate=50000 / vbv_bufsize=62500 / nal_hrd=none / filler=0 / ip_ratio=1.40 / pb_ratio=1.30 / aq=1:1.00Language : EnglishDefault : YesForced : No

Audio #1ID : 2Format : AC-3Format/Info : Audio Coding 3Codec ID : A_AC3Duration : 1 h 13 minBit rate mode : ConstantBit rate : 192 kb/sChannel(s) : 2 channelsChannel positions : Front: L RSampling rate : 48.0 kHzFrame rate : 31.250 FPS (1536 SPF)Bit depth : 16 bitsCompression mode : LossyStream size : 101 MiB (7%)Title : НевафильмLanguage : RussianService kind : Complete MainDefault : YesForced : No

Audio #2ID : 3Format : AC-3Format/Info : Audio Coding 3Codec ID : A_AC3Duration : 1 h 13 minBit rate mode : ConstantBit rate : 192 kb/sChannel(s) : 2 channelsChannel positions : Front: L RSampling rate : 48.0 kHzFrame rate : 31.250 FPS (1536 SPF)Bit depth : 16 bitsCompression mode : LossyStream size : 101 MiB (7%)Title : Пётр Гланц и Татьяна КазаковаLanguage : RussianService kind : Complete MainDefault : NoForced : No

Audio #3ID : 4Format : AC-3Format/Info : Audio Coding 3Codec ID : A_AC3Duration : 1 h 13 minBit rate mode : ConstantBit rate : 192 kb/sChannel(s) : 1 channelChannel positions : Front: CSampling rate : 48.0 kHzFrame rate : 31.250 FPS (1536 SPF)Bit depth : 16 bitsCompression mode : LossyStream size : 101 MiB (7%)Title : Вартан ДохаловLanguage : RussianService kind : Complete MainDefault : NoForced : No

TextID : 5Format : UTF-8Codec ID : S_TEXT/UTF8Codec ID/Info : UTF-8 Plain TextDuration : 1 h 8 minBit rate : 94 b/sCount of elements : 902Stream size : 47.9 KiB (0%)Language : RussianDefault : NoForced : No

Menu00:00:00.000 : en:Opening Titles/Finding The Map00:06:22.000 : en:The Lost Pyramid00:18:50.000 : en:The Genie Is Released00:27:26.000 : en:The Meanest Master00:31:56.000 : en:Merlock The Rat00:36:49.000 : en:The Jig Is Up00:42:56.000 : en:Scrooge On The Run00:48:27.000 : en:The Unlikely Master00:52:00.000 : en:Scrooge Behind Bars00:55:14.000 : en:Fighting Back00:59:35.000 : en:Merlock's Back In Charge01:06:09.000 : en:The Ultimate Wish/End Credits


Трекер:  [ 29-Май-2018 16:01 ]

  

Скачать .torrent

Размер .torrent файла 15 KB


Размер: 1.46 GB
Хэш (hash) релиза: 8881a21ce81f24a2117a522b27c30298eb4f7e6e
Подписка на обновления:

Еще никто не оставлял запись к записи скачать торрент Утиные истории: Заветная лампа Сокровище потерянной лампы . Будь первым!

!Обратная связь