WWE Money In The Bank 2018 Kickoff WEB h264-HEEL [TJET] | Ready Player One (2018) 720p WEBRip 1GB - MkvCage | Last.Week.Tonight.With.John.Oliver.S05E15.720p.HDTV.X264-UAV [rar...

Скачать через торрент [ATV3] Роман Израэл, Esq. Roman J. Israel, Esq. бесплатно русская версия torrent активатор

Статистика раздачи
Размер:  8.2 GB   |    Зарегистрирован:  27 дней   |    .torrent скачан:  17 раз   |   
Раздают:  1  
   
загрузка...
 
Автор Сообщение

Galfimbul

avatar Galfimbul


Роман Израэл, Esq. / Roman J. Israel, Esq.
«All rise»

6.272 / 10 6.40 / 10
Год выпуска: 2017
Страна: США
Жанр: Драма, криминал
Продолжительность: 02:02:20

Перевод: Многоголосый закадровый (Лицензия)
Оригинальная аудиодорожка: Есть
Cубтитры: Русские форсированные, Русские, Английские, Украинские
Режиссёр: Дэн Гилрой
Сценарий: Дэн Гилрой
Продюсер: Тодд Блэк, Майкл Блум, Джейсон Клот
Оператор: Роберт Элсвит
Композитор: Джеймс Ньютон Ховард
Художник: Кевин Кэвэно, Роберт В. Джозеф, Френсин Джеймисон-Танчук
Монтаж: Джон Гилрой
В ролях: Дензел Вашингтон, Колин Фаррелл, Кармен Эджого, Линда Граватт, Аманда Уоррен, Хьюго Армстронг, Сэм Гилрой, Тони Плана, Дерон Хортон, Амари Читом

Бюджет: $22 000 000
Сборы в США: $11 962 778
Сборы в мире: + $702 984 = $12 665 762

Мировая премьера: 10 сентября 2017

Описание: История опытного адвоката-идеалиста с твёрдой хваткой, Романа Дж. Израэля. Череда событий вынуждает героя пойти на крайние меры, противоречащие его профессиональным и моральным принципам.
Качество исходника: Blu-Ray (BlueBird)
Качество: BDRip
Тип: HD (1080p)
Контейнер: M4V
Видео: H.264, 1920x1040, 1.85:1, 8 000 Kbps, 23.976 (24000/1001) fps

Аудио 1: Русский/Многоголосый закадровый (Лицензия), AAC / 2.0 / 160 Kbps / 48.0 KHz
Аудио 2: Английский/Оригинальная дорожка , AAC / 2.0 / 160 Kbps / 48.0 KHz
Аудио 3: Русский/Многоголосый закадровый (Лицензия), AC-3 / 5.1 / 640 Kbps / 48.0 KHz
Аудио 4: Английский/Оригинальная дорожка , AC-3 / 5.1 / 640 Kbps / 48.0 KHz

Субтитры 1: Русские форсированные
Субтитры 2: Русские полные
Субтитры 3: Английские полные
Субтитры 4: Украинские полные
Sort Name: Roman J. Israel, Esq.
XID: Apple:vendor_id:2017-1005831
contentID: 1309438073
Copyright: © 2017 Columbia Pictures Industries, Inc., CCP Inner City Film Holdings, LLC, Macro Content Fund I, LLC, Bron Creative Corp. and IN Splitter, L.P. All Rights Reserved.
Screenwriters: Дэн Гилрой
Producers: Тодд Блэк, Майкл Блум, Джейсон Клот
Director: Дэн Гилрой
Cast: Дензел Вашингтон, Колин Фаррелл, Кармен Эджого, Линда Граватт, Аманда Уоррен, Хьюго Армстронг, Сэм Гилрой, Тони Плана, Дерон Хортон, Амари Читом
Studio: Bron Studios
Rating Annotation: Rated PG-13 for language and some violence.
Rating: 4
Long Description: История опытного адвоката-идеалиста с твёрдой хваткой, Романа Дж. Израэля. Череда событий вынуждает героя пойти на крайние меры, противоречащие его профессиональным и моральным принципам.
Description: История опытного адвоката-идеалиста с твёрдой хваткой, Романа Дж. Израэля. Череда событий вынуждает героя пойти на крайние меры, противоречащие его профессиональным и моральным принципам.
Release Date: 2017-09-10T08:00:00Z
Genre: Thriller
Artist: Dan Gilroy
Name: Roman J. Israel, Esq.
General
Complete name                            : /Users/imac/HandBrake/Roman J. Israel, Esq. (1080p HD) m4v.m4v
Format                                   : MPEG-4
Codec ID                                 : M4V  (M4V /M4A /mp42/isom)
File size                                : 8.20 GiB
Duration                                 : 2h 2mn
Overall bit rate mode                    : Variable
Overall bit rate                         : 9 596 Kbps
Movie name                               : Roman J. Israel, Esq.
Performer                                : Dan Gilroy
Director                                 : Дэн Гилрой
Actor                                    : Дензел Вашингтон / Колин Фаррелл / Кармен Эджого / Линда Граватт / Аманда Уоррен / Хьюго Армстронг / Сэм Гилрой / Тони Плана / Дерон Хортон / Амари Читом
Screenplay by                            : Дэн Гилрой
Producer                                 : Тодд Блэк / Майкл Блум / Джейсон Клот
Production studio                        : Bron Studios
Genre                                    : Thriller
ContentType                              : Short Film
Description                              : История опытного адвоката-идеалиста с твёрдой хваткой, Романа Дж. Израэля. Череда событий вынуждает героя пойти на крайние меры, противоречащие его профессиональным и моральным принципам.
Recorded date                            : UTC 2017-09-10 08:00:00
Encoded date                             : UTC 2018-05-29 10:16:36
Tagged date                              : UTC 2018-05-29 10:22:01
Copyright                                : © 2017 Columbia Pictures Industries, Inc., CCP Inner City Film Holdings, LLC, Macro Content Fund I, LLC, Bron Creative Corp. and IN Splitter, L.P. All Rights Reserved.
Cover                                    : Yes
Rating                                   : None
Title/Sort                               : Roman J. Israel, Esq.
LongDescription                          : История опытного адвоката-идеалиста с твёрдой хваткой, Романа Дж. Израэля. Череда событий вынуждает героя пойти на крайние меры, противоречащие его профессиональным и моральным принципам.
AppleStoreCatalogID                      : 1309438073
Vendor                                   : Apple:vendor_id:2017-1005831
ContentRating                            : mpaa|PG-13|300|Rated PG-13 for language and some violence.

Video #1
ID                                       : 1
Format                                   : AVC
Format/Info                              : Advanced Video Codec
Format profile                           : [email protected]
Format settings                          : CABAC / 4 Ref Frames
Format settings, CABAC                   : Yes
Format settings, ReFrames                : 4 frames
Codec ID                                 : avc1
Codec ID/Info                            : Advanced Video Coding
Duration                                 : 2h 2mn
Source duration                          : 2h 2mn
Bit rate                                 : 8 000 Kbps
Width                                    : 1 920 pixels
Height                                   : 1 040 pixels
Display aspect ratio                     : 1.85:1
Frame rate mode                          : Variable
Frame rate                               : 23.976 (24000/1001) fps
Minimum frame rate                       : 23.974 fps
Maximum frame rate                       : 23.981 fps
Color space                              : YUV
Chroma subsampling                       : 4:2:0
Bit depth                                : 8 bits
Scan type                                : Progressive
Bits/(Pixel*Frame)                       : 0.167
Stream size                              : 6.83 GiB (83%)
Source stream size                       : 6.83 GiB (83%)
Title                                    : Main Program
Writing library                          : x264 core 155 r2893 b00bcaf
Encoding settings                        : cabac=1 / ref=4 / deblock=1:-2:-2 / analyse=0x3:0x133 / me=umh / subme=10 / psy=1 / psy_rd=1.00:0.15 / mixed_ref=1 / me_range=32 / chroma_me=1 / trellis=2 / 8x8dct=1 / cqm=0 / deadzone=21,11 / fast_pskip=1 / chroma_qp_offset=-3 / threads=32 / lookahead_threads=8 / sliced_threads=0 / nr=0 / decimate=0 / interlaced=0 / bluray_compat=0 / constrained_intra=0 / bframes=16 / b_pyramid=2 / b_adapt=2 / b_bias=0 / direct=3 / weightb=1 / open_gop=0 / weightp=2 / keyint=240 / keyint_min=24 / scenecut=40 / intra_refresh=0 / rc_lookahead=40 / rc=2pass / mbtree=1 / bitrate=8000 / ratetol=1.0 / qcomp=0.70 / qpmin=0 / qpmax=69 / qpstep=4 / cplxblur=20.0 / qblur=0.5 / ip_ratio=1.40 / aq=1:1.00
Language                                 : English
Encoded date                             : UTC 2018-05-29 10:16:36
Tagged date                              : UTC 2018-05-29 10:17:07
Color range                              : Limited
Color primaries                          : BT.709
Transfer characteristics                 : BT.709
Matrix coefficients                      : BT.709
Menus                                    : 10,11

Video #2
ID                                       : 11
Format                                   : JPEG
Codec ID                                 : jpeg
Duration                                 : 2h 2mn
Bit rate mode                            : Variable
Bit rate                                 : 774 bps
Width                                    : 640 pixels
Height                                   : 346 pixels
Display aspect ratio                     : 1.85:1
Frame rate mode                          : Variable
Frame rate                               : 0.002 fps
Minimum frame rate                       : 0.001 fps
Maximum frame rate                       : 0.005 fps
Color space                              : YUV
Chroma subsampling                       : 4:2:0
Bit depth                                : 8 bits
Compression mode                         : Lossy
Bits/(Pixel*Frame)                       : 1.748
Stream size                              : 756 KiB (0%)
Title                                    : Chapter Images
Language                                 : English
Default                                  : No
Encoded date                             : UTC 2018-05-29 10:17:20
Tagged date                              : UTC 2018-05-29 10:17:21
Menu For                                 : 1
ColorSpace_ICC                           : RGB

Audio #1
ID                                       : 2
Format                                   : AAC
Format/Info                              : Advanced Audio Codec
Format profile                           : LC
Codec ID                                 : mp4a-40-2
Duration                                 : 2h 2mn
Source duration                          : 2h 2mn
Bit rate mode                            : Variable
Bit rate                                 : 155 Kbps
Maximum bit rate                         : 273 Kbps
Channel(s)                               : 2 channels
Channel positions                        : Front: L R
Sampling rate                            : 48.0 KHz
Frame rate                               : 46.875 fps (1024 SPF)
Compression mode                         : Lossy
Stream size                              : 136 MiB (2%)
Source stream size                       : 136 MiB (2%)
Title                                    : Russian Stereo
Language                                 : Russian
Default                                  : Yes
Alternate group                          : 1
Encoded date                             : UTC 2018-05-29 10:16:36
Tagged date                              : UTC 2018-05-29 10:17:12
Fallback From                            : 4
Subtitles                                : 6,7
Menus                                    : 10

Audio #2
ID                                       : 3
Format                                   : AAC
Format/Info                              : Advanced Audio Codec
Format profile                           : LC
Codec ID                                 : mp4a-40-2
Duration                                 : 2h 2mn
Source duration                          : 2h 2mn
Bit rate mode                            : Variable
Bit rate                                 : 155 Kbps
Maximum bit rate                         : 276 Kbps
Channel(s)                               : 2 channels
Channel positions                        : Front: L R
Sampling rate                            : 48.0 KHz
Frame rate                               : 46.875 fps (1024 SPF)
Compression mode                         : Lossy
Stream size                              : 135 MiB (2%)
Source stream size                       : 135 MiB (2%)
Title                                    : English Stereo
Language                                 : English
Default                                  : No
Alternate group                          : 1
Encoded date                             : UTC 2018-05-29 10:16:36
Tagged date                              : UTC 2018-05-29 10:17:12
Fallback From                            : 5

Audio #3
ID                                       : 4
Format                                   : AC-3
Format/Info                              : Audio Coding 3
Codec ID                                 : ac-3
Duration                                 : 2h 2mn
Bit rate mode                            : Constant
Bit rate                                 : 640 Kbps
Channel(s)                               : 6 channels
Channel positions                        : Front: L C R, Side: L R, LFE
Sampling rate                            : 48.0 KHz
Frame rate                               : 31.250 fps (1536 SPF)
Bit depth                                : 16 bits
Compression mode                         : Lossy
Stream size                              : 560 MiB (7%)
Title                                    : Russian DD 5.1
Language                                 : Russian
Service kind                             : Complete Main
Default                                  : Inherited From: 2
Alternate group                          : 1
Encoded date                             : UTC 2018-05-29 10:16:36
Tagged date                              : UTC 2018-05-29 10:16:54
Fallback To                              : 2
Subtitles                                : 6,7

Audio #4
ID                                       : 5
Format                                   : AC-3
Format/Info                              : Audio Coding 3
Codec ID                                 : ac-3
Duration                                 : 2h 2mn
Bit rate mode                            : Constant
Bit rate                                 : 640 Kbps
Channel(s)                               : 6 channels
Channel positions                        : Front: L C R, Side: L R, LFE
Sampling rate                            : 48.0 KHz
Frame rate                               : 31.250 fps (1536 SPF)
Bit depth                                : 16 bits
Compression mode                         : Lossy
Stream size                              : 560 MiB (7%)
Title                                    : English DD 5.1
Language                                 : English
Service kind                             : Complete Main
Default                                  : No
Alternate group                          : 1
Encoded date                             : UTC 2018-05-29 10:16:36
Tagged date                              : UTC 2018-05-29 10:16:54
Fallback To                              : 3

Text #1
ID                                       : 6
Format                                   : Timed Text
Muxing mode                              : sbtl
Codec ID                                 : tx3g
Duration                                 : 2h 2mn
Bit rate mode                            : Variable
Bit rate                                 : 3 bps
Stream size                              : 2.76 KiB (0%)
Title                                    : Russian forced
Language                                 : Russian
Default                                  : Yes
Forced                                   : Yes
Alternate group                          : 2
Encoded date                             : UTC 2018-05-29 10:16:36
Tagged date                              : UTC 2018-05-29 10:16:36
Subtitles For                            : 2,4
Full Alternative                         : 7

Text #2
ID                                       : 7
Format                                   : Timed Text
Muxing mode                              : sbtl
Codec ID                                 : tx3g
Duration                                 : 2h 2mn
Bit rate mode                            : Variable
Bit rate                                 : 112 bps
Stream size                              : 100 KiB (0%)
Title                                    : Russian full
Language                                 : Russian
Default                                  : No
Forced                                   : No
Alternate group                          : 2
Encoded date                             : UTC 2018-05-29 10:16:36
Tagged date                              : UTC 2018-05-29 10:16:36
Subtitles For                            : 2,4
Forced Alternative                       : 6

Text #3
ID                                       : 8
Format                                   : Timed Text
Muxing mode                              : sbtl
Codec ID                                 : tx3g
Duration                                 : 1h 54mn
Bit rate mode                            : Variable
Bit rate                                 : 78 bps
Stream size                              : 65.0 KiB (0%)
Title                                    : English full
Language                                 : English
Default                                  : No
Forced                                   : No
Alternate group                          : 2
Encoded date                             : UTC 2018-05-29 10:16:36
Tagged date                              : UTC 2018-05-29 10:16:36

Text #4
ID                                       : 9
Format                                   : Timed Text
Muxing mode                              : sbtl
Codec ID                                 : tx3g
Duration                                 : 2h 2mn
Bit rate mode                            : Variable
Bit rate                                 : 100 bps
Stream size                              : 89.1 KiB (0%)
Title                                    : Ukrainian full
Language                                 : Ukrainian
Default                                  : No
Forced                                   : No
Alternate group                          : 2
Encoded date                             : UTC 2018-05-29 10:16:36
Tagged date                              : UTC 2018-05-29 10:16:36

Menu #1
00:00:00.000                             : Chapter 1
00:11:42.327                             : Chapter 2
00:24:00.397                             : Chapter 3
00:29:22.719                             : Chapter 4
00:43:31.359                             : Chapter 5
00:50:22.603                             : Chapter 6
00:54:07.286                             : Chapter 7
01:02:18.902                             : Chapter 8
01:07:25.124                             : Chapter 9
01:11:39.629                             : Chapter 10
01:15:10.381                             : Chapter 11
01:20:32.411                             : Chapter 12
01:25:34.963                             : Chapter 13
01:31:17.639                             : Chapter 14
01:40:01.746                             : Chapter 15
01:51:26.221                             : Chapter 16

Menu #2
ID                                       : 10
Codec ID                                 : text
Duration                                 : 2h 2mn
Language                                 : English
Encoded date                             : UTC 2018-05-29 10:17:12
Tagged date                              : UTC 2018-05-29 10:17:12
Menu For                                 : 2,1
00:00:00.000                             : Chapter 1
00:11:42.327                             : Chapter 2
00:24:00.397                             : Chapter 3
00:29:22.719                             : Chapter 4
00:43:31.359                             : Chapter 5
00:50:22.603                             : Chapter 6
00:54:07.286                             : Chapter 7
01:02:18.902                             : Chapter 8
01:07:25.124                             : Chapter 9
01:11:39.629                             : Chapter 10
01:15:10.381                             : Chapter 11
01:20:32.411                             : Chapter 12
01:25:34.963                             : Chapter 13
01:31:17.639                             : Chapter 14
01:40:01.746                             : Chapter 15
01:51:26.221                             : Chapter 16
Bit rate mode                            : VBR
x264 [info]: frame I:1122  Avg QP:18.17  size:197172
x264 [info]: frame P:37797 Avg QP:21.32  size: 69272
x264 [info]: frame B:137073 Avg QP:22.47  size: 32809
x264 [info]: consecutive B-frames:  1.5%  3.0%  5.6% 33.0% 13.6% 17.0% 10.5% 14.2%  1.1%  0.1%  0.1%  0.4%  0.0%  0.0%  0.0%  0.0%  0.0%
x264 [info]: mb I  I16..4:  6.6% 83.1% 10.3%
x264 [info]: mb P  I16..4:  1.7% 10.5%  0.7%  P16..4: 48.3% 17.0% 11.7%  0.2%  0.0%    skip: 9.9%
x264 [info]: mb B  I16..4:  0.1%  1.2%  0.0%  B16..8: 48.0%  8.4%  2.0%  direct: 5.4%  skip:34.9%  L0:46.7% L1:46.5% BI: 6.8%
x264 [info]: 8x8 transform intra:84.2% inter:65.6%
x264 [info]: direct mvs  spatial:98.8% temporal:1.2%
x264 [info]: coded y,uvDC,uvAC intra: 86.2% 79.5% 50.0% inter: 29.7% 24.9% 6.4%
x264 [info]: i16 v,h,dc,p: 36% 18% 13% 33%
x264 [info]: i8 v,h,dc,ddl,ddr,vr,hd,vl,hu:  8%  8% 11% 11% 14% 13% 13% 11% 12%
x264 [info]: i4 v,h,dc,ddl,ddr,vr,hd,vl,hu: 11% 12%  4%  9% 15% 13% 14% 10% 13%
x264 [info]: i8c dc,h,v,p: 43% 23% 18% 16%
x264 [info]: Weighted P-Frames: Y:2.0% UV:1.1%
x264 [info]: ref P L0: 51.4% 10.2% 26.6% 11.5%  0.3%  0.0%
x264 [info]: ref B L0: 83.9% 13.3%  2.8%
x264 [info]: ref B L1: 93.2%  6.8%
x264 [info]: kb/s:7996.11

Релиз подготовлен для просмотра на Apple TV, iPad, iPhone, iPod Touch.
Для просмотра данного релиза на компьютере с ОС Windows рекомендуется использовать VLC media player

Трекер:  [ 29-Май-2018 14:06 ]

  

Скачать .torrent

Размер .torrent файла 82 KB


Размер: 8.2 GB
Хэш (hash) релиза: c8ab08747e50853d3dfb069a838df9978010df72

Еще никто не оставлял запись к записи скачать торрент [ATV3] Роман Израэл, Esq. Roman J. Israel, Esq. . Будь первым!

!Обратная связь