Comic GirlsS01E01 | Zorro (1957-1959) | Netherlands

Скачать через торрент Пятьдесят оттенков свободы Fifty Shades Freed бесплатно русская версия torrent активатор

Статистика раздачи
Размер:  3.92 GB   |    Зарегистрирован:  27 дней   |    .torrent скачан:  34 раза   |   
Раздают:  1  
   
загрузка...
 
Автор Сообщение

Galfimbul

avatar Galfimbul


Пятьдесят оттенков свободы / Fifty Shades Freed

(Unrated Edition)

«Миссис Грей ждёт вас»

5.297 / 10 4.40 / 10
Год выпуска: 2018
Страна: США
Жанр: Триллер, драма, мелодрама
Продолжительность: 01:50:18

Перевод: Дублированный (iTunes)
Оригинальная аудиодорожка: Есть
Cубтитры: Русские форсированные, Русские, Английские
Режиссёр: Джеймс Фоули
Сценарий: Ниал Леонард, Э.Л. Джеймс
Продюсер: Дэна Брунетти, Майкл Де Лука, Э.Л. Джеймс
Оператор: Джон Шварцман
Композитор: Дэнни Элфман
Художник: Нельсон Коутс, Питер Боднарус, Крэйг Хемфрис
Монтаж: Дэвид С. Кларк, Ричард Фрэнсис-Брюс, Дебра Нил Фишер
В ролях: Дакота Джонсон, Джейми Дорнан, Эрик Джонсон, Элоиза Мамфорд, Рита Ора, Люк Граймс, Виктор Расук, Макс Мартини, Дженнифер Эль, Марша Гей Харден

Бюджет: $55 000 000
Сборы в США: $100 407 760
Сборы в мире: + $267 900 000 = $368 307 760
Сборы в России: $13 530 787

Мировая премьера: 6 февраля 2018
Премьера (РФ): 8 февраля 2018, «UPI»

Цифровой релиз: 5 апреля 2018, «Universal»

Описание: Кристиан и Анастейша поженились и живут в своё удовольствие, наслаждаясь обществом друг друга. Однако жизнь новоиспечённой миссис Грей находится в опасности, поскольку объявляется недруг, который собирается мстить, используя свою богатую фантазию. Призраки прошлого Кристиана вновь вернулись, а тучи над супругами сгущаются всё сильнее.
Качество исходника: Blu-Ray (BlueBird)
Качество: BDRip
Тип: HD (720p)
Контейнер: M4V
Видео: H.264, 1280x536, 2.40:1, 3 500 Kbps, 23.976 (24000/1001) fps

Аудио 1: Русский/Дублированный (iTunes), AAC / 2.0 / 160 Kbps / 48.0 KHz
Аудио 2: Английский/Оригинальная дорожка , AAC / 2.0 / 160 Kbps / 48.0 KHz
Аудио 3: Русский/Дублированный (iTunes), AC-3 / 5.1 / 640 Kbps / 48.0 KHz
Аудио 4: Английский/Оригинальная дорожка , AC-3 / 5.1 / 640 Kbps / 48.0 KHz

Субтитры 1: Русские форсированные
Субтитры 2: Русские полные
Субтитры 3: Английские полные
Sort Name: Fifty Shades Freed
XID: Apple:vendor_id:2018-893488
contentID: 1340577415
Copyright: © 2018 Universal Studios. All Rights Reserved.
Screenwriters: Ниал Леонард, Э.Л. Джеймс
Producers: Дэна Брунетти, Майкл Де Лука, Э.Л. Джеймс
Director: Джеймс Фоули
Cast: Дакота Джонсон, Джейми Дорнан, Эрик Джонсон, Элоиза Мамфорд, Рита Ора, Люк Граймс, Виктор Расук, Макс Мартини, Дженнифер Эль, Марша Гей Харден
Studio: Universal Pictures
Rating: 5
Long Description: Кристиан и Анастейша поженились и живут в своё удовольствие, наслаждаясь обществом друг друга. Однако жизнь новоиспечённой миссис Грей находится в опасности, поскольку объявляется недруг, который собирается мстить, используя свою богатую фантазию. Призраки прошлого Кристиана вновь вернулись, а тучи над супругами сгущаются всё сильнее.
Description: Кристиан и Анастейша поженились и живут в своё удовольствие, наслаждаясь обществом друг друга. Однако жизнь новоиспечённой миссис Грей находится в опасности, поскольку объявляется недруг, который собирается мстить, используя свою богатую фантазию. Призраки прошлого Кристиана вновь вернулись, а тучи над супругами сгущаются всё сильнее.
Release Date: 2018-02-06T08:00:00Z
Genre: Romance
Artist: James Foley
Name: Fifty Shades Freed
General
Complete name                            : /Users/imac/HandBrake/Fifty Shades Freed (720p HD).m4v
Format                                   : MPEG-4
Codec ID                                 : M4V  (M4V /M4A /mp42/isom)
File size                                : 3.92 GiB
Duration                                 : 1h 50mn
Overall bit rate mode                    : Variable
Overall bit rate                         : 5 093 Kbps
Movie name                               : Fifty Shades Freed
Performer                                : James Foley
Director                                 : Джеймс Фоули
Actor                                    : Дакота Джонсон / Джейми Дорнан / Эрик Джонсон / Элоиза Мамфорд / Рита Ора / Люк Граймс / Виктор Расук / Макс Мартини / Дженнифер Эль / Марша Гей Харден
Screenplay by                            : Ниал Леонард / Э.Л. Джеймс
Producer                                 : Дэна Брунетти / Майкл Де Лука / Э.Л. Джеймс
Production studio                        : Universal Pictures
Genre                                    : Romance
ContentType                              : Short Film
Description                              : Кристиан и Анастейша поженились и живут в своё удовольствие, наслаждаясь обществом друг друга. Однако жизнь новоиспечённой миссис Грей находится в опасности, поскольку объявляется недруг, который собирается мстить, используя свою богатую фантазию. Призраки прошлого Кристиана вновь вернулись, а тучи над супругами сгущаются всё сильнее.
Recorded date                            : UTC 2018-02-06 08:00:00
Encoded date                             : UTC 2018-05-28 17:43:40
Tagged date                              : UTC 2018-05-28 17:52:29
Copyright                                : © 2018 Universal Studios. All Rights Reserved.
Cover                                    : Yes
Rating                                   : None
Title/Sort                               : Fifty Shades Freed
LongDescription                          : Кристиан и Анастейша поженились и живут в своё удовольствие, наслаждаясь обществом друг друга. Однако жизнь новоиспечённой миссис Грей находится в опасности, поскольку объявляется недруг, который собирается мстить, используя свою богатую фантазию. Призраки прошлого Кристиана вновь вернулись, а тучи над супругами сгущаются всё сильнее.
HDVideo                                  : Yes
AppleStoreCatalogID                      : 1340577415
Vendor                                   : Apple:vendor_id:2018-893488
ContentRating                            : mpaa|R|400|

Video #1
ID                                       : 1
Format                                   : AVC
Format/Info                              : Advanced Video Codec
Format profile                           : [email protected]
Format settings                          : 3 Ref Frames
Format settings, CABAC                   : No
Format settings, ReFrames                : 3 frames
Codec ID                                 : avc1
Codec ID/Info                            : Advanced Video Coding
Duration                                 : 1h 50mn
Source duration                          : 1h 50mn
Bit rate                                 : 3 500 Kbps
Width                                    : 1 280 pixels
Height                                   : 536 pixels
Display aspect ratio                     : 2.40:1
Frame rate mode                          : Variable
Frame rate                               : 23.976 (24000/1001) fps
Minimum frame rate                       : 23.974 fps
Maximum frame rate                       : 23.981 fps
Color space                              : YUV
Chroma subsampling                       : 4:2:0
Bit depth                                : 8 bits
Scan type                                : Progressive
Bits/(Pixel*Frame)                       : 0.213
Stream size                              : 2.69 GiB (69%)
Source stream size                       : 2.69 GiB (69%)
Title                                    : Main Program
Writing library                          : x264 core 155 r2893 b00bcaf
Encoding settings                        : cabac=0 / ref=3 / deblock=1:-3:-3 / analyse=0x3:0x113 / me=umh / subme=9 / psy=1 / psy_rd=1.00:0.15 / mixed_ref=1 / me_range=32 / chroma_me=1 / trellis=0 / 8x8dct=1 / cqm=0 / deadzone=21,11 / fast_pskip=0 / chroma_qp_offset=-2 / threads=17 / lookahead_threads=1 / sliced_threads=0 / nr=0 / decimate=0 / interlaced=0 / bluray_compat=0 / constrained_intra=0 / bframes=3 / b_pyramid=0 / b_adapt=2 / b_bias=0 / direct=1 / weightb=0 / open_gop=0 / weightp=0 / keyint=240 / keyint_min=24 / scenecut=40 / intra_refresh=0 / rc_lookahead=40 / rc=2pass / mbtree=1 / bitrate=3500 / ratetol=1.0 / qcomp=0.65 / qpmin=0 / qpmax=69 / qpstep=4 / cplxblur=20.0 / qblur=0.5 / vbv_maxrate=9500 / vbv_bufsize=9500 / nal_hrd=none / filler=0 / ip_ratio=1.40 / aq=1:1.10
Language                                 : English
Encoded date                             : UTC 2018-05-28 17:43:41
Tagged date                              : UTC 2018-05-28 17:43:48
Color range                              : Limited
Color primaries                          : BT.709
Transfer characteristics                 : BT.709
Matrix coefficients                      : BT.709
Menus                                    : 9,10

Video #2
ID                                       : 10
Format                                   : JPEG
Codec ID                                 : jpeg
Duration                                 : 1h 50mn
Bit rate mode                            : Variable
Bit rate                                 : 998 bps
Width                                    : 640 pixels
Height                                   : 268 pixels
Display aspect ratio                     : 2.40:1
Frame rate mode                          : Variable
Frame rate                               : 0.003 fps
Minimum frame rate                       : 0.002 fps
Maximum frame rate                       : 0.005 fps
Color space                              : YUV
Chroma subsampling                       : 4:2:0
Bit depth                                : 8 bits
Compression mode                         : Lossy
Bits/(Pixel*Frame)                       : 1.940
Stream size                              : 812 KiB (0%)
Title                                    : Chapter Images
Language                                 : English
Default                                  : No
Encoded date                             : UTC 2018-05-28 17:44:49
Tagged date                              : UTC 2018-05-28 17:44:49
Menu For                                 : 1
ColorSpace_ICC                           : RGB

Audio #1
ID                                       : 2
Format                                   : AAC
Format/Info                              : Advanced Audio Codec
Format profile                           : LC
Codec ID                                 : mp4a-40-2
Duration                                 : 1h 50mn
Source duration                          : 1h 50mn
Bit rate mode                            : Variable
Bit rate                                 : 156 Kbps
Maximum bit rate                         : 235 Kbps
Channel(s)                               : 2 channels
Channel positions                        : Front: L R
Sampling rate                            : 48.0 KHz
Frame rate                               : 46.875 fps (1024 SPF)
Compression mode                         : Lossy
Stream size                              : 123 MiB (3%)
Source stream size                       : 123 MiB (3%)
Title                                    : Russian Stereo
Language                                 : Russian
Default                                  : Yes
Alternate group                          : 1
Encoded date                             : UTC 2018-05-28 17:43:41
Tagged date                              : UTC 2018-05-28 17:44:43
Fallback From                            : 4
Subtitles                                : 6,7

Audio #2
ID                                       : 3
Format                                   : AAC
Format/Info                              : Advanced Audio Codec
Format profile                           : LC
Codec ID                                 : mp4a-40-2
Duration                                 : 1h 50mn
Source duration                          : 1h 50mn
Bit rate mode                            : Variable
Bit rate                                 : 157 Kbps
Maximum bit rate                         : 230 Kbps
Channel(s)                               : 2 channels
Channel positions                        : Front: L R
Sampling rate                            : 48.0 KHz
Frame rate                               : 46.875 fps (1024 SPF)
Compression mode                         : Lossy
Stream size                              : 124 MiB (3%)
Source stream size                       : 124 MiB (3%)
Title                                    : English Stereo
Language                                 : English
Default                                  : No
Alternate group                          : 1
Encoded date                             : UTC 2018-05-28 17:43:41
Tagged date                              : UTC 2018-05-28 17:44:43
Fallback From                            : 5

Audio #3
ID                                       : 4
Format                                   : AC-3
Format/Info                              : Audio Coding 3
Codec ID                                 : ac-3
Duration                                 : 1h 50mn
Bit rate mode                            : Constant
Bit rate                                 : 640 Kbps
Channel(s)                               : 6 channels
Channel positions                        : Front: L C R, Side: L R, LFE
Sampling rate                            : 48.0 KHz
Frame rate                               : 31.250 fps (1536 SPF)
Bit depth                                : 16 bits
Compression mode                         : Lossy
Stream size                              : 505 MiB (13%)
Title                                    : Russian DD 5.1
Language                                 : Russian
Service kind                             : Complete Main
Default                                  : Inherited From: 2
Alternate group                          : 1
Encoded date                             : UTC 2018-05-28 17:43:41
Tagged date                              : UTC 2018-05-28 17:44:43
Fallback To                              : 2
Subtitles                                : 6,7

Audio #4
ID                                       : 5
Format                                   : AC-3
Format/Info                              : Audio Coding 3
Codec ID                                 : ac-3
Duration                                 : 1h 50mn
Bit rate mode                            : Constant
Bit rate                                 : 640 Kbps
Channel(s)                               : 6 channels
Channel positions                        : Front: L C R, Side: L R, LFE
Sampling rate                            : 48.0 KHz
Frame rate                               : 31.250 fps (1536 SPF)
Bit depth                                : 16 bits
Compression mode                         : Lossy
Stream size                              : 505 MiB (13%)
Title                                    : English DD 5.1
Language                                 : English
Service kind                             : Complete Main
Default                                  : No
Alternate group                          : 1
Encoded date                             : UTC 2018-05-28 17:43:41
Tagged date                              : UTC 2018-05-28 17:44:43
Fallback To                              : 3

Text #1
ID                                       : 6
Format                                   : Timed Text
Muxing mode                              : sbtl
Codec ID                                 : tx3g
Duration                                 : 1h 50mn
Bit rate mode                            : Variable
Bit rate                                 : 1 bps
Stream size                              : 1.04 KiB (0%)
Title                                    : Russian forced
Language                                 : Russian
Default                                  : Yes
Forced                                   : Yes
Alternate group                          : 2
Encoded date                             : UTC 2018-05-28 17:43:41
Tagged date                              : UTC 2018-05-28 17:44:39
Subtitles For                            : 2,4
Full Alternative                         : 7

Text #2
ID                                       : 7
Format                                   : Timed Text
Muxing mode                              : sbtl
Codec ID                                 : tx3g
Duration                                 : 1h 50mn
Bit rate mode                            : Variable
Bit rate                                 : 67 bps
Stream size                              : 54.1 KiB (0%)
Title                                    : Russian full
Language                                 : Russian
Default                                  : No
Forced                                   : No
Alternate group                          : 2
Encoded date                             : UTC 2018-05-28 17:43:41
Tagged date                              : UTC 2018-05-28 17:44:40
Subtitles For                            : 2,4
Forced Alternative                       : 6

Text #3
ID                                       : 8
Format                                   : Timed Text
Muxing mode                              : sbtl
Codec ID                                 : tx3g
Duration                                 : 1h 44mn
Bit rate mode                            : Variable
Bit rate                                 : 58 bps
Stream size                              : 44.2 KiB (0%)
Title                                    : English full
Language                                 : English
Default                                  : No
Forced                                   : No
Alternate group                          : 2
Encoded date                             : UTC 2018-05-28 17:43:41
Tagged date                              : UTC 2018-05-28 17:44:40

Menu #1
00:00:00.000                             : 00:00:00.000
00:05:32.958                             : 00:05:32.958
00:13:26.264                             : 00:13:26.264
00:21:26.160                             : 00:21:26.160
00:26:51.860                             : 00:26:51.860
00:30:39.546                             : 00:30:39.546
00:34:15.428                             : 00:34:15.428
00:39:07.345                             : 00:39:07.345
00:43:25.186                             : 00:43:25.186
00:49:14.660                             : 00:49:14.660
00:53:16.402                             : 00:53:16.360
00:57:47.047                             : 00:57:47.005
01:01:28.310                             : 01:01:28.268
01:07:16.574                             : 01:07:16.532
01:14:46.691                             : 01:14:46.649
01:20:35.331                             : 01:20:35.330
01:28:10.410                             : 01:28:10.368
01:33:12.754                             : 01:33:12.712
01:37:56.996                             : 01:37:56.996
01:43:46.512                             : 01:43:46.428

Menu #2
ID                                       : 9
Codec ID                                 : text
Duration                                 : 1h 50mn
Language                                 : English
Encoded date                             : UTC 2018-05-28 17:44:43
Tagged date                              : UTC 2018-05-28 17:44:43
Bit rate mode                            : CBR
Menu For                                 : 1
00:00:00.000                             : 00:00:00.000
00:05:32.958                             : 00:05:32.958
00:13:26.264                             : 00:13:26.264
00:21:26.160                             : 00:21:26.160
00:26:51.860                             : 00:26:51.860
00:30:39.546                             : 00:30:39.546
00:34:15.428                             : 00:34:15.428
00:39:07.345                             : 00:39:07.345
00:43:25.186                             : 00:43:25.186
00:49:14.660                             : 00:49:14.660
00:53:16.402                             : 00:53:16.360
00:57:47.047                             : 00:57:47.005
01:01:28.310                             : 01:01:28.268
01:07:16.574                             : 01:07:16.532
01:14:46.691                             : 01:14:46.649
01:20:35.331                             : 01:20:35.330
01:28:10.410                             : 01:28:10.368
01:33:12.754                             : 01:33:12.712
01:37:56.996                             : 01:37:56.996
01:43:46.512                             : 01:43:46.428
x264 [info]: frame I:1561  Avg QP:14.94  size:106819
x264 [info]: frame P:56363 Avg QP:17.44  size: 33540
x264 [info]: frame B:100753 Avg QP:18.62  size:  8244
x264 [info]: consecutive B-frames:  3.8% 23.6% 33.1% 39.5%
x264 [info]: mb I  I16..4:  5.7% 60.5% 33.8%
x264 [info]: mb P  I16..4:  2.5%  5.2%  2.6%  P16..4: 48.0% 27.7% 11.5%  0.0%  0.0%    skip: 2.5%
x264 [info]: mb B  I16..4:  0.5%  0.6%  0.3%  B16..8: 47.4% 11.4%  1.6%  direct: 4.0%  skip:34.2%  L0:42.3% L1:49.4% BI: 8.3%
x264 [info]: 8x8 transform intra:51.1% inter:44.7%
x264 [info]: coded y,uvDC,uvAC intra: 75.3% 87.1% 72.3% inter: 25.0% 28.3% 18.1%
x264 [info]: i16 v,h,dc,p: 75%  6%  5% 14%
x264 [info]: i8 v,h,dc,ddl,ddr,vr,hd,vl,hu: 15%  8%  6% 10% 14% 14% 13% 11% 10%
x264 [info]: i4 v,h,dc,ddl,ddr,vr,hd,vl,hu: 17%  9%  3% 10% 15% 15% 13% 10%  9%
x264 [info]: i8c dc,h,v,p: 54% 15% 20% 11%
x264 [info]: ref P L0: 70.5% 17.6% 11.9%
x264 [info]: ref B L0: 75.3% 24.7%
x264 [info]: kb/s:3490.73

Релиз подготовлен для просмотра на Apple TV, iPad, iPhone, iPod Touch.
Для просмотра данного релиза на компьютере с ОС Windows рекомендуется использовать VLC media player

Трекер:  [ 28-Май-2018 22:06 ]

  

Скачать .torrent

Размер .torrent файла 39 KB


Размер: 3.92 GB
Хэш (hash) релиза: 9296058e44a4b26445ead3147c772b0b0cd1cda0

Торренты, похожие на Пятьдесят оттенков свободы Fifty Shades Freed скачать торрент

Форум Название Автор Размер S L Добавлен
Видео (iPhone/iPod Touch/iPad) ·· [ATV3] Пятьдесят оттенков свободы / Fifty Shades Freed (Джеймс Фоули / James Foley ) [2018, США, Триллер, драма, мелодрама, BDRip, HD (1080p)] [Unrated Edition] DUB + Original + sub (rus, eng) Galfimbul 79436029877.4 GB 0 0 1527498385

12:06

28-Май-18

Еще никто не оставлял запись к записи скачать торрент Пятьдесят оттенков свободы Fifty Shades Freed . Будь первым!

!Обратная связь