Download History - Rich Brian Lyrics mp3 | Télécharger Part 4 | Die Welt der Winx

Скачать через торрент Девушки и танки: Финал Girls und Panzer: Saishuushou бесплатно Аниме Все серии на русском torrent

Статистика раздачи
Размер:  12.97 GB   |    Зарегистрирован:  2 месяца 17 дней   |    .torrent скачан:  25 раз   |   
Раздают:  1  
   
загрузка...
 
Автор Сообщение

Galfimbul

avatar Galfimbul


Девушки и танки: Финал / Girls und Panzer: Saishuushou / Girls und Panzer das Final

Страна: Япония
Год выпуска: 2017
Жанр: приключения
Тип: Movie
Продолжительность: 1 эп. 48 мин.
Режиссер: Мидзусима Цутому
Студия: ACTAS

Описание: В скором будущем в мире станут очень популярными бои на танках. Причём не на поднадоевших компьютерах, а на реальных боевых машинах.

Дело доходит до того, что в школах и университетах даже вводят новый предмет — танководство, и наибольшую популярность оно получает среди девушек. Именно они участвуют в больших международных турнирах: русская команда «Правда» практически непобедима, немногим ей уступают напористые китаянки, чопорные англичанки и дотошные немки.

А вот у японской команды «Оарай» одни проблемы: и с танчиками не всё гладко, и академию хотят закрыть, и личная жизнь девчонок никак не складывается. Да тут ещё во время важнейшего чемпионата появляется новый конкурент — бригада психически неустойчивых француженок. Совсем некстати!
© КиноПоиск

Качество: BDRemux
Тип релиза: Без хардсаба
Формат видео: MKV
Наличие линковки: Нет
Видео: AVC, 1920x1080, 32.0 Mb/s, 23.976 fps, 8 bit
Аудио 1: jpn(int), FLAC, 1 512 kb/s, 48.0 kHz, 2 ch
Аудио 2: jpn(int), DTS MA, 3 840 kb/s, 48.0 kHz, 6 ch
Аудио 3: jpn(int), DTS MA, 1 536 kb/s, 48.0 kHz, 2 ch
Субтитры: rus(ext), ASS, Перевод: Uncle_Ho
GeneralUnique ID : 53481026560998937244158172566087302735 (0x283C123066A3D81105ACAF1567C87E4F)Complete name : F:\1\MR\Girls und Panzer das Finale\Girls und Panzer das Finale - 1.mkvFormat : MatroskaFormat version : Version 4 / Version 2File size : 13.0 GiBDuration : 47 min 44 sOverall bit rate mode : VariableOverall bit rate : 38.9 Mb/sEncoded date : UTC 2018-05-28 16:59:23Writing application : mkvmerge v23.0.0 ('The Bride Said No') 64-bitWriting library : libebml v1.3.6 + libmatroska v1.4.9

VideoID : 1Format : AVCFormat/Info : Advanced Video CodecFormat profile : [email protected] settings : CABAC / 4 Ref FramesFormat settings, CABAC : YesFormat settings, RefFrames : 4 framesCodec ID : V_MPEG4/ISO/AVCDuration : 47 min 44 sBit rate mode : VariableBit rate : 32.0 Mb/sMaximum bit rate : 34.0 Mb/sWidth : 1 920 pixelsHeight : 1 080 pixelsDisplay aspect ratio : 16:9Frame rate mode : ConstantFrame rate : 23.976 (24000/1001) FPSColor space : YUVChroma subsampling : 4:2:0Bit depth : 8 bitsScan type : ProgressiveBits/(Pixel*Frame) : 0.644Stream size : 10.7 GiB (82%)Default : YesForced : No

Audio #1ID : 2Format : FLACFormat/Info : Free Lossless Audio CodecCodec ID : A_FLACDuration : 47 min 44 sBit rate mode : VariableBit rate : 1 512 kb/sChannel(s) : 2 channelsChannel positions : Front: L RSampling rate : 48.0 kHzFrame rate : 11.719 FPS (4096 SPF)Bit depth : 24 bitsStream size : 516 MiB (4%)Title : FLAC 2.0Writing library : libFLAC 1.2.1 (UTC 2007-09-17)Language : JapaneseDefault : YesForced : No

Audio #2ID : 3Format : DTSFormat/Info : Digital Theater SystemsFormat profile : MA / CoreCodec ID : A_DTSDuration : 47 min 44 sBit rate mode : Variable / ConstantBit rate : 3 840 kb/s / 1 509 kb/sChannel(s) : 6 channelsChannel positions : Front: L C R, Side: L R, LFESampling rate : 48.0 kHzFrame rate : 93.750 FPS (512 SPF)Bit depth : 24 bitsCompression mode : Lossless / LossyStream size : 1.28 GiB (10%)Title : DTS 5.1Language : JapaneseDefault : NoForced : No

Audio #3ID : 4Format : DTSFormat/Info : Digital Theater SystemsFormat profile : MA / CoreCodec ID : A_DTSDuration : 47 min 44 sBit rate mode : Variable / ConstantBit rate : 1 536 kb/s / 768 kb/sChannel(s) : 2 channelsChannel positions : Front: L RSampling rate : 48.0 kHzFrame rate : 93.750 FPS (512 SPF)Bit depth : 24 bitsCompression mode : Lossless / LossyStream size : 519 MiB (4%)Title : DTS 2.0Language : JapaneseDefault : NoForced : No


Трекер:  [ 28-Май-2018 20:30 ]

  

Скачать .torrent

Размер .torrent файла 33 KB


Размер: 12.97 GB
Хэш (hash) релиза: fe28f7f0d945ba8a9f10cdf69d43a1da60545c36
Подписка на обновления:

Торренты, похожие на Девушки и танки: Финал Girls und Panzer: Saishuushou скачать торрент

Форум Название Автор Размер S L Добавлен
Аниме | HD Rips ·· Девушки и танки: Финал / Girls und Panzer: Saishuushou / Girls und Panzer das Finale [Movie] [1 из 6] [Без хардсаба] [JAP, RUS(ext), SUB] [2017, приключения, BDRip] [1080p] Galfimbul 30115925562.8 GB 1 1 1527640208

03:30

30-Май-18

Еще никто не оставлял запись к записи скачать торрент Девушки и танки: Финал Girls und Panzer: Saishuushou . Будь первым!

!Обратная связь