Wondershare | Goober and the Ghost Chasers (1973–1975) | Manowar 1982-2016

Скачать через торрент Кид против Кэт Kid vs. Kat Фильм бесплатно в хорошем качестве torrent

Скачивайте на UnionPeer.org фильмы через торрент без регистрации. Новинки кино в хорошем качестве через торрент. На UnionPeer.org можно скачать через торрент фильмы 2014 и 2015 годов. Самые новые фильмы.

Скачать торрент Кид против Кэт Kid vs. Kat бесплатно через .torrent фильм мультфильм сериал

Статистика раздачи
Размер:  22.38 GB   |    Зарегистрирован:  28 дней   |    .torrent скачан:  22 раза   |   
Раздают:  1  
   
загрузка...
 
Автор Сообщение

Galfimbul

avatar Galfimbul


Кид против Кэт / Kid vs. Kat

Страна: Канада
Жанр: мультсериал, комедия
Продолжительность серии: ~00:22:00
Год выпуска: 2011
Перевод: Профессиональный (дублированный)
Русские субтитры: нет

Режиссёр: Роб Бутилье/Rob Boutilier
Описание: Kid vs Kat («Кид ви-эс Кэт» или «Кид версус Кэт» — рус. «Ребенок против Кота») — канадский мультсериал, созданный компанией Studio B Productions для Jetix Europe и YTV[1]. Мультсериал посвящён напряжённым взаимоотношениям 14-летнего инопланетного кота с земным 10-летним мальчиком своей сестрёнки, который на самом деле является агентом.Милли Бартенбёргер приносит в дом земного кота неизвестного происхождения. С этого момента жизнь Купа, брата Милли, переворачивается — кот оказывается инопланетным агентом, пытающимся Купа уничтожить. Куп вынужден противостоять коту один (или вместе со своим другом Деннисом), так как все доказательства инопланетного происхождения кота тем или иным образом пропадают, и рассказам Купа о злом коте никто не верит.Релиз: DisneyJazz
Доп. информация: Видео - iTunes, из сети. Звук - из сети. Спасибо за записи сериала тем, кто выложил на видеохостинги.

Семпл: http://multi-up.com/1199780

Качество: WEB-DL 1080p
Формат: MKV
Видео: AVC (H264), 1920x1080, 23.976fps, 5640 kbps
Аудио: AC3, 48.0 Hz, 2 ch, 192 kbps
Аудио 2: AC3, 48.0 Hz, 5.1 ch, 384 kbps
Субтитры: английские
[pre]General
Unique ID : 254844931702961584426075739472930149023 (0xBFB959383A1A4401ABDDA7CAF5E2129F)
Complete name : N:\Kid.vs.Kat.S01.2008.WEB-DL.1080p.Rus.Eng\Kid.vs.Kat.s01E01.Let.the.Games.Begin,E02.Night.of.the.Zombie.Kat.WEB-DL.1080p.Rus.Eng.mkv
Format : Matroska
Format version : Version 4 / Version 2
File size : 864 MiB
Duration : 22mn 40s
Overall bit rate : 5 325 Kbps
Movie name : Кид vs Кэт s01e01e02. Начнем игру, Ночь котов-зомби
Encoded date : UTC 2018-05-28 10:21:30
Writing application : mkvmerge v6.6.0 ('The Edge Of The In Between') built on Dec 1 2013 17:55:00
Writing library : libebml v1.3.0 + libmatroska v1.4.1

Video
ID : 1
Format : AVC
Format/Info : Advanced Video Codec
Format profile : [email protected]
Format settings, CABAC : Yes
Format settings, ReFrames : 4 frames
Codec ID : V_MPEG4/ISO/AVC
Duration : 22mn 40s
Bit rate : 4 643 Kbps
Width : 1 920 pixels
Height : 1 080 pixels
Display aspect ratio : 16:9
Frame rate mode : Constant
Frame rate : 23.976 fps
Color space : YUV
Chroma subsampling : 4:2:0
Bit depth : 8 bits
Scan type : Progressive
Bits/(Pixel*Frame) : 0.093
Stream size : 753 MiB (87%)
Language : English
Default : Yes
Forced : No
Color primaries : BT.709
Transfer characteristics : BT.709
Matrix coefficients : BT.709

Audio #1
ID : 2
Format : AC-3
Format/Info : Audio Coding 3
Mode extension : CM (complete main)
Format settings, Endianness : Big
Codec ID : A_AC3
Duration : 22mn 40s
Bit rate mode : Constant
Bit rate : 192 Kbps
Channel(s) : 2 channels
Channel positions : Front: L R
Sampling rate : 48.0 KHz
Bit depth : 16 bits
Compression mode : Lossy
Stream size : 31.1 MiB (4%)
Language : Russian
Default : Yes
Forced : No

Audio #2
ID : 3
Format : AC-3
Format/Info : Audio Coding 3
Mode extension : CM (complete main)
Format settings, Endianness : Big
Codec ID : A_AC3
Duration : 22mn 40s
Bit rate mode : Constant
Bit rate : 384 Kbps
Channel(s) : 6 channels
Channel positions : Front: L C R, Side: L R, LFE
Sampling rate : 48.0 KHz
Bit depth : 16 bits
Compression mode : Lossy
Stream size : 62.3 MiB (7%)
Title : 5.1
Language : English
Default : No
Forced : No

Text
ID : 4
Format : UTF-8
Codec ID : S_TEXT/UTF8
Codec ID/Info : UTF-8 Plain Text
Language : English
Default : No
Forced : No
Кид vs Кэт s01e01. Начнем игру, Ночь котов-зомби
Кид vs Кэт s01e02. Преступление и наказание, Мяу-Мяу-Мяу
Кид vs Кэт s01e03. Домик на дереве, Печенье
Кид vs Кэт s01e04. У врача, Найти и обезвредить
Кид vs Кэт s01e05. Куп и ГРИПП, Немного волшебства
Кид vs Кэт s01e06. Кот-гипнотизёр, Аллергия
Кид vs Кэт s01e07. Только я и клей, Вы пожалеете!
Кид vs Кэт s01e08. Как подготовиться к тесту, Я в порядке, а ты кот
Кид vs Кэт s01e09. Наберите Би чтобы вызвать няню, Трава, всегда жёстче
Кид vs Кэт s01e10. Одна большая счастливая семья, Счастливые туристы
Кид vs Кэт s01e11. Летающая тарелка, Играй по правилам
Кид vs Кэт s01e12. Дом страха, Кошмар садовода
Кид vs Кэт s01e13. Проклятие Тутанкитти, Любимая мозоль
Кид vs Кэт s01e14. Не оставляй меня без статики, Спортивный штурм
Кид vs Кэт s01e15. Кошачье печенье, Домашний бой
Кид vs Кэт s01e16. Рыбка в мутном озере, Снова в школу
Кид vs Кэт s01e17. Крадущийся Куп, затаившийся Кот, День розыгрышей
Кид vs Кэт s01e18. Мы верим в дога, Попробуй, догони!
Кид vs Кэт s01e19. Дети в беде, Кошачьи мечты
Кид vs Кэт s01e20. Лови кота!, Космическое дело
Кид vs Кэт s01e21. Прочь, комары!, Толстый кот
Кид vs Кэт s01e22. Куп-гипнотизёр, Бей, как Бартонбёргер
Кид vs Кэт s01e23. Долой этот джаз!, Осторожно, идёт ремонт
Кид vs Кэт s01e24. Осторожно, Куп-оборотень!, Кошелёк, или жизнь
Кид vs Кэт s01e25. Кот-хакер, Вот это ракета!
Кид vs Кэт s01e26. Куп и Кот против Рождества (Часть 1 и 2)
Предыдущие и альтернативные раздачи

Трекер:  [ 28-Май-2018 14:24 ]

  

Скачать .torrent

Размер .torrent файла 115 KB


Размер: 22.38 GB
Хэш (hash) релиза: 9dc60c27bbd313a35d9d379562a836cdbdd4b76a
Подписка на обновления:

Торренты, похожие на Кид против Кэт Kid vs. Kat скачать торрент

Форум Название Автор Размер S L Добавлен
Мультсериалы ·· Кид против Кэт / Kid vs. Kat / Сезон 1, 2 / Серии 1-50 из 52 (Роб Бутилье / Rob Boutilier) [2008-2011, Мультсериал, SATRip] L 95389637748.88 GB 0 0 1326746381

23:39

16-Янв-12

Еще никто не оставлял запись к записи скачать торрент Кид против Кэт Kid vs. Kat . Будь первым!

!Обратная связь