JetBrains PyCharm Professional 2018 1 4 + Keygen [CracksMind] | The Spider Woman | Richard Harris

Скачать через торрент [ATV3] Пятьдесят оттенков свободы Fifty Shades Freed бесплатно русская версия torrent активатор

Статистика раздачи
Размер:  7.4 GB   |    Зарегистрирован:  28 дней   |    .torrent скачан:  14 раз   |   
Раздают:  1  
   
загрузка...
 
Автор Сообщение

Galfimbul

avatar Galfimbul


Пятьдесят оттенков свободы / Fifty Shades Freed

(Unrated Edition)

«Миссис Грей ждёт вас»

5.297 / 10 4.40 / 10
Год выпуска: 2018
Страна: США
Жанр: Триллер, драма, мелодрама
Продолжительность: 01:50:18

Перевод: Дублированный (iTunes)
Оригинальная аудиодорожка: Есть
Cубтитры: Русские форсированные, Русские, Английские
Режиссёр: Джеймс Фоули
Сценарий: Ниал Леонард, Э.Л. Джеймс
Продюсер: Дэна Брунетти, Майкл Де Лука, Э.Л. Джеймс
Оператор: Джон Шварцман
Композитор: Дэнни Элфман
Художник: Нельсон Коутс, Питер Боднарус, Крэйг Хемфрис
Монтаж: Дэвид С. Кларк, Ричард Фрэнсис-Брюс, Дебра Нил Фишер
В ролях: Дакота Джонсон, Джейми Дорнан, Эрик Джонсон, Элоиза Мамфорд, Рита Ора, Люк Граймс, Виктор Расук, Макс Мартини, Дженнифер Эль, Марша Гей Харден

Бюджет: $55 000 000
Сборы в США: $100 407 760
Сборы в мире: + $267 900 000 = $368 307 760
Сборы в России: $13 530 787

Мировая премьера: 6 февраля 2018
Премьера (РФ): 8 февраля 2018, «UPI»

Цифровой релиз: 5 апреля 2018, «Universal»

Описание: Кристиан и Анастейша поженились и живут в своё удовольствие, наслаждаясь обществом друг друга. Однако жизнь новоиспечённой миссис Грей находится в опасности, поскольку объявляется недруг, который собирается мстить, используя свою богатую фантазию. Призраки прошлого Кристиана вновь вернулись, а тучи над супругами сгущаются всё сильнее.
Качество исходника: Blu-Ray (BlueBird)
Качество: BDRip
Тип: HD (1080p)
Контейнер: M4V
Видео: H.264, 1920x800, 2.40:1, 8 000 Kbps, 23.976 (24000/1001) fps

Аудио 1: Русский/Дублированный (iTunes), AAC / 2.0 / 160 Kbps / 48.0 KHz
Аудио 2: Английский/Оригинальная дорожка , AAC / 2.0 / 160 Kbps / 48.0 KHz
Аудио 3: Русский/Дублированный (iTunes), AC-3 / 5.1 / 640 Kbps / 48.0 KHz
Аудио 4: Английский/Оригинальная дорожка , AC-3 / 5.1 / 640 Kbps / 48.0 KHz

Субтитры 1: Русские форсированные
Субтитры 2: Русские полные
Субтитры 3: Английские полные
Sort Name: Fifty Shades Freed
XID: Apple:vendor_id:2018-893488
contentID: 1340577415
Copyright: © 2018 Universal Studios. All Rights Reserved.
Screenwriters: Ниал Леонард, Э.Л. Джеймс
Producers: Дэна Брунетти, Майкл Де Лука, Э.Л. Джеймс
Director: Джеймс Фоули
Cast: Дакота Джонсон, Джейми Дорнан, Эрик Джонсон, Элоиза Мамфорд, Рита Ора, Люк Граймс, Виктор Расук, Макс Мартини, Дженнифер Эль, Марша Гей Харден
Studio: Universal Pictures
Rating: 5
Long Description: Кристиан и Анастейша поженились и живут в своё удовольствие, наслаждаясь обществом друг друга. Однако жизнь новоиспечённой миссис Грей находится в опасности, поскольку объявляется недруг, который собирается мстить, используя свою богатую фантазию. Призраки прошлого Кристиана вновь вернулись, а тучи над супругами сгущаются всё сильнее.
Description: Кристиан и Анастейша поженились и живут в своё удовольствие, наслаждаясь обществом друг друга. Однако жизнь новоиспечённой миссис Грей находится в опасности, поскольку объявляется недруг, который собирается мстить, используя свою богатую фантазию. Призраки прошлого Кристиана вновь вернулись, а тучи над супругами сгущаются всё сильнее.
Release Date: 2018-02-06T08:00:00Z
Genre: Romance
Artist: James Foley
Name: Fifty Shades Freed
General
Complete name                            : /Users/imac/HandBrake/Fifty Shades Freed (1080p HD).m4v
Format                                   : MPEG-4
Codec ID                                 : M4V  (M4V /M4A /mp42/isom)
File size                                : 7.40 GiB
Duration                                 : 1h 50mn
Overall bit rate mode                    : Variable
Overall bit rate                         : 9 602 Kbps
Movie name                               : Fifty Shades Freed
Performer                                : James Foley
Director                                 : Джеймс Фоули
Actor                                    : Дакота Джонсон / Джейми Дорнан / Эрик Джонсон / Элоиза Мамфорд / Рита Ора / Люк Граймс / Виктор Расук / Макс Мартини / Дженнифер Эль / Марша Гей Харден
Screenplay by                            : Ниал Леонард / Э.Л. Джеймс
Producer                                 : Дэна Брунетти / Майкл Де Лука / Э.Л. Джеймс
Production studio                        : Universal Pictures
Genre                                    : Romance
ContentType                              : Short Film
Description                              : Кристиан и Анастейша поженились и живут в своё удовольствие, наслаждаясь обществом друг друга. Однако жизнь новоиспечённой миссис Грей находится в опасности, поскольку объявляется недруг, который собирается мстить, используя свою богатую фантазию. Призраки прошлого Кристиана вновь вернулись, а тучи над супругами сгущаются всё сильнее.
Recorded date                            : UTC 2018-02-06 08:00:00
Encoded date                             : UTC 2018-05-28 08:18:30
Tagged date                              : UTC 2018-05-28 08:23:19
Copyright                                : © 2018 Universal Studios. All Rights Reserved.
Cover                                    : Yes
Rating                                   : None
Title/Sort                               : Fifty Shades Freed
LongDescription                          : Кристиан и Анастейша поженились и живут в своё удовольствие, наслаждаясь обществом друг друга. Однако жизнь новоиспечённой миссис Грей находится в опасности, поскольку объявляется недруг, который собирается мстить, используя свою богатую фантазию. Призраки прошлого Кристиана вновь вернулись, а тучи над супругами сгущаются всё сильнее.
AppleStoreCatalogID                      : 1340577415
Vendor                                   : Apple:vendor_id:2018-893488
ContentRating                            : mpaa|R|400|

Video #1
ID                                       : 1
Format                                   : AVC
Format/Info                              : Advanced Video Codec
Format profile                           : [email protected]
Format settings                          : CABAC / 4 Ref Frames
Format settings, CABAC                   : Yes
Format settings, ReFrames                : 4 frames
Codec ID                                 : avc1
Codec ID/Info                            : Advanced Video Coding
Duration                                 : 1h 50mn
Source duration                          : 1h 50mn
Bit rate                                 : 8 000 Kbps
Width                                    : 1 920 pixels
Height                                   : 800 pixels
Display aspect ratio                     : 2.40:1
Frame rate mode                          : Variable
Frame rate                               : 23.976 (24000/1001) fps
Minimum frame rate                       : 23.974 fps
Maximum frame rate                       : 23.981 fps
Color space                              : YUV
Chroma subsampling                       : 4:2:0
Bit depth                                : 8 bits
Scan type                                : Progressive
Bits/(Pixel*Frame)                       : 0.217
Stream size                              : 6.16 GiB (83%)
Source stream size                       : 6.16 GiB (83%)
Title                                    : Main Program
Writing library                          : x264 core 155 r2893 b00bcaf
Encoding settings                        : cabac=1 / ref=4 / deblock=1:-2:-2 / analyse=0x3:0x133 / me=umh / subme=10 / psy=1 / psy_rd=1.00:0.15 / mixed_ref=1 / me_range=32 / chroma_me=1 / trellis=2 / 8x8dct=1 / cqm=0 / deadzone=21,11 / fast_pskip=1 / chroma_qp_offset=-3 / threads=25 / lookahead_threads=6 / sliced_threads=0 / nr=0 / decimate=0 / interlaced=0 / bluray_compat=0 / constrained_intra=0 / bframes=16 / b_pyramid=2 / b_adapt=2 / b_bias=0 / direct=3 / weightb=1 / open_gop=0 / weightp=2 / keyint=240 / keyint_min=24 / scenecut=40 / intra_refresh=0 / rc_lookahead=40 / rc=2pass / mbtree=1 / bitrate=8000 / ratetol=1.0 / qcomp=0.70 / qpmin=0 / qpmax=69 / qpstep=4 / cplxblur=20.0 / qblur=0.5 / ip_ratio=1.40 / aq=1:1.00
Language                                 : English
Encoded date                             : UTC 2018-05-28 08:18:30
Tagged date                              : UTC 2018-05-28 08:18:50
Color range                              : Limited
Color primaries                          : BT.709
Transfer characteristics                 : BT.709
Matrix coefficients                      : BT.709
Menus                                    : 9,10

Video #2
ID                                       : 10
Format                                   : JPEG
Codec ID                                 : jpeg
Duration                                 : 1h 50mn
Bit rate mode                            : Variable
Bit rate                                 : 980 bps
Width                                    : 640 pixels
Height                                   : 266 pixels
Display aspect ratio                     : 2.40:1
Frame rate mode                          : Variable
Frame rate                               : 0.003 fps
Minimum frame rate                       : 0.002 fps
Maximum frame rate                       : 0.005 fps
Color space                              : YUV
Chroma subsampling                       : 4:2:0
Bit depth                                : 8 bits
Compression mode                         : Lossy
Bits/(Pixel*Frame)                       : 1.919
Stream size                              : 797 KiB (0%)
Title                                    : Chapter Images
Language                                 : English
Default                                  : No
Encoded date                             : UTC 2018-05-28 08:19:03
Tagged date                              : UTC 2018-05-28 08:19:03
Menu For                                 : 1
ColorSpace_ICC                           : RGB

Audio #1
ID                                       : 2
Format                                   : AAC
Format/Info                              : Advanced Audio Codec
Format profile                           : LC
Codec ID                                 : mp4a-40-2
Duration                                 : 1h 50mn
Source duration                          : 1h 50mn
Bit rate mode                            : Variable
Bit rate                                 : 156 Kbps
Maximum bit rate                         : 235 Kbps
Channel(s)                               : 2 channels
Channel positions                        : Front: L R
Sampling rate                            : 48.0 KHz
Frame rate                               : 46.875 fps (1024 SPF)
Compression mode                         : Lossy
Stream size                              : 123 MiB (2%)
Source stream size                       : 123 MiB (2%)
Title                                    : Russian Stereo
Language                                 : Russian
Default                                  : Yes
Alternate group                          : 1
Encoded date                             : UTC 2018-05-28 08:18:30
Tagged date                              : UTC 2018-05-28 08:18:54
Fallback From                            : 4
Subtitles                                : 6,7
Menus                                    : 9

Audio #2
ID                                       : 3
Format                                   : AAC
Format/Info                              : Advanced Audio Codec
Format profile                           : LC
Codec ID                                 : mp4a-40-2
Duration                                 : 1h 50mn
Source duration                          : 1h 50mn
Bit rate mode                            : Variable
Bit rate                                 : 157 Kbps
Maximum bit rate                         : 230 Kbps
Channel(s)                               : 2 channels
Channel positions                        : Front: L R
Sampling rate                            : 48.0 KHz
Frame rate                               : 46.875 fps (1024 SPF)
Compression mode                         : Lossy
Stream size                              : 124 MiB (2%)
Source stream size                       : 124 MiB (2%)
Title                                    : English Stereo
Language                                 : English
Default                                  : No
Alternate group                          : 1
Encoded date                             : UTC 2018-05-28 08:18:31
Tagged date                              : UTC 2018-05-28 08:18:54
Fallback From                            : 5

Audio #3
ID                                       : 4
Format                                   : AC-3
Format/Info                              : Audio Coding 3
Codec ID                                 : ac-3
Duration                                 : 1h 50mn
Bit rate mode                            : Constant
Bit rate                                 : 640 Kbps
Channel(s)                               : 6 channels
Channel positions                        : Front: L C R, Side: L R, LFE
Sampling rate                            : 48.0 KHz
Frame rate                               : 31.250 fps (1536 SPF)
Bit depth                                : 16 bits
Compression mode                         : Lossy
Stream size                              : 505 MiB (7%)
Title                                    : Russian DD 5.1
Language                                 : Russian
Service kind                             : Complete Main
Default                                  : Inherited From: 2
Alternate group                          : 1
Encoded date                             : UTC 2018-05-28 08:18:31
Tagged date                              : UTC 2018-05-28 08:18:41
Fallback To                              : 2
Subtitles                                : 6,7

Audio #4
ID                                       : 5
Format                                   : AC-3
Format/Info                              : Audio Coding 3
Codec ID                                 : ac-3
Duration                                 : 1h 50mn
Bit rate mode                            : Constant
Bit rate                                 : 640 Kbps
Channel(s)                               : 6 channels
Channel positions                        : Front: L C R, Side: L R, LFE
Sampling rate                            : 48.0 KHz
Frame rate                               : 31.250 fps (1536 SPF)
Bit depth                                : 16 bits
Compression mode                         : Lossy
Stream size                              : 505 MiB (7%)
Title                                    : English DD 5.1
Language                                 : English
Service kind                             : Complete Main
Default                                  : No
Alternate group                          : 1
Encoded date                             : UTC 2018-05-28 08:18:31
Tagged date                              : UTC 2018-05-28 08:18:41
Fallback To                              : 3

Text #1
ID                                       : 6
Format                                   : Timed Text
Muxing mode                              : sbtl
Codec ID                                 : tx3g
Duration                                 : 1h 50mn
Bit rate mode                            : Variable
Bit rate                                 : 1 bps
Stream size                              : 1.05 KiB (0%)
Title                                    : Russian forced
Language                                 : Russian
Default                                  : Yes
Forced                                   : Yes
Alternate group                          : 2
Encoded date                             : UTC 2018-05-28 08:18:31
Tagged date                              : UTC 2018-05-28 08:18:31
Subtitles For                            : 2,4
Full Alternative                         : 7

Text #2
ID                                       : 7
Format                                   : Timed Text
Muxing mode                              : sbtl
Codec ID                                 : tx3g
Duration                                 : 1h 50mn
Bit rate mode                            : Variable
Bit rate                                 : 67 bps
Stream size                              : 54.1 KiB (0%)
Title                                    : Russian full
Language                                 : Russian
Default                                  : No
Forced                                   : No
Alternate group                          : 2
Encoded date                             : UTC 2018-05-28 08:18:31
Tagged date                              : UTC 2018-05-28 08:18:31
Subtitles For                            : 2,4
Forced Alternative                       : 6

Text #3
ID                                       : 8
Format                                   : Timed Text
Muxing mode                              : sbtl
Codec ID                                 : tx3g
Duration                                 : 1h 44mn
Bit rate mode                            : Variable
Bit rate                                 : 58 bps
Stream size                              : 44.2 KiB (0%)
Title                                    : English full
Language                                 : English
Default                                  : No
Forced                                   : No
Alternate group                          : 2
Encoded date                             : UTC 2018-05-28 08:18:31
Tagged date                              : UTC 2018-05-28 08:18:31

Menu #1
00:00:00.000                             : 00:00:00.000
00:05:32.958                             : 00:05:32.958
00:13:26.264                             : 00:13:26.264
00:21:26.160                             : 00:21:26.160
00:26:51.860                             : 00:26:51.860
00:30:39.546                             : 00:30:39.546
00:34:15.428                             : 00:34:15.428
00:39:07.345                             : 00:39:07.345
00:43:25.186                             : 00:43:25.186
00:49:14.660                             : 00:49:14.660
00:53:16.402                             : 00:53:16.360
00:57:47.047                             : 00:57:47.005
01:01:28.310                             : 01:01:28.268
01:07:16.574                             : 01:07:16.532
01:14:46.691                             : 01:14:46.649
01:20:35.331                             : 01:20:35.330
01:28:10.410                             : 01:28:10.368
01:33:12.754                             : 01:33:12.712
01:37:56.996                             : 01:37:56.996
01:43:46.512                             : 01:43:46.428

Menu #2
ID                                       : 9
Codec ID                                 : text
Duration                                 : 1h 50mn
Language                                 : English
Encoded date                             : UTC 2018-05-28 08:18:54
Tagged date                              : UTC 2018-05-28 08:18:54
Bit rate mode                            : CBR
Menu For                                 : 2,1
00:00:00.000                             : 00:00:00.000
00:05:32.958                             : 00:05:32.958
00:13:26.264                             : 00:13:26.264
00:21:26.160                             : 00:21:26.160
00:26:51.860                             : 00:26:51.860
00:30:39.546                             : 00:30:39.546
00:34:15.428                             : 00:34:15.428
00:39:07.345                             : 00:39:07.345
00:43:25.186                             : 00:43:25.186
00:49:14.660                             : 00:49:14.660
00:53:16.402                             : 00:53:16.360
00:57:47.047                             : 00:57:47.005
01:01:28.310                             : 01:01:28.268
01:07:16.574                             : 01:07:16.532
01:14:46.691                             : 01:14:46.649
01:20:35.331                             : 01:20:35.330
01:28:10.410                             : 01:28:10.368
01:33:12.754                             : 01:33:12.712
01:37:56.996                             : 01:37:56.996
01:43:46.512                             : 01:43:46.428
x264 [info]: frame I:1100  Avg QP:15.49  size:201654
x264 [info]: frame P:35596 Avg QP:18.33  size: 72441
x264 [info]: frame B:121981 Avg QP:18.83  size: 31294
x264 [info]: consecutive B-frames:  2.8%  3.5%  9.2% 14.8% 15.1% 47.9%  4.0%  0.6%  0.6%  0.4%  0.3%  0.2%  0.2%  0.2%  0.0%  0.1%  0.2%
x264 [info]: mb I  I16..4: 29.9% 51.2% 18.9%
x264 [info]: mb P  I16..4:  6.3% 14.8%  1.5%  P16..4: 44.3% 18.7% 11.3%  0.4%  0.1%    skip: 2.7%
x264 [info]: mb B  I16..4:  2.6%  1.6%  0.1%  B16..8: 40.6% 10.2%  2.3%  direct:10.9%  skip:31.6%  L0:44.7% L1:41.7% BI:13.5%
x264 [info]: 8x8 transform intra:54.0% inter:57.8%
x264 [info]: direct mvs  spatial:98.8% temporal:1.2%
x264 [info]: coded y,uvDC,uvAC intra: 83.5% 90.8% 73.6% inter: 34.6% 44.5% 19.0%
x264 [info]: i16 v,h,dc,p: 33%  5% 41% 21%
x264 [info]: i8 v,h,dc,ddl,ddr,vr,hd,vl,hu: 11%  9%  8%  9% 13% 13% 12% 12% 13%
x264 [info]: i4 v,h,dc,ddl,ddr,vr,hd,vl,hu: 16% 10%  8%  8% 12% 12% 12% 10% 12%
x264 [info]: i8c dc,h,v,p: 52% 17% 17% 14%
x264 [info]: Weighted P-Frames: Y:1.7% UV:0.7%
x264 [info]: ref P L0: 50.7% 10.7% 27.4% 10.7%  0.4%  0.0%
x264 [info]: ref B L0: 80.3% 16.4%  3.3%
x264 [info]: ref B L1: 92.3%  7.7%
x264 [info]: kb/s:7999.48

Релиз подготовлен для просмотра на Apple TV, iPad, iPhone, iPod Touch.
Для просмотра данного релиза на компьютере с ОС Windows рекомендуется использовать VLC media player

Трекер:  [ 28-Май-2018 12:06 ]

  

Скачать .torrent

Размер .torrent файла 74 KB


Размер: 7.4 GB
Хэш (hash) релиза: bd07a256c6b022861053e5c9a2ee52c455c7c16b

Еще никто не оставлял запись к записи скачать торрент [ATV3] Пятьдесят оттенков свободы Fifty Shades Freed . Будь первым!

!Обратная связь