Rosario Dawson | Early Man | Richard Ayoade

Скачать через торрент Такси 5 Taxi 5 Фильм бесплатно в хорошем качестве torrent

Скачивайте на UnionPeer.org фильмы через торрент без регистрации. Новинки кино в хорошем качестве через торрент. На UnionPeer.org можно скачать через торрент фильмы 2014 и 2015 годов. Самые новые фильмы.

Скачать торрент Такси 5 Taxi 5 бесплатно через .torrent фильм мультфильм сериал

Статистика раздачи
Размер:  1.37 GB   |    Зарегистрирован:  28 дней   |    .torrent скачан:  95 раз   |   
Раздают:  1  
   
загрузка...
 
Автор Сообщение

Galfimbul

avatar Galfimbul


Такси 5 /Taxi 5

Год выхода: 2018
Жанр: криминал
, боевик
Режиссер: Франк Гастамбид
В ролях: Сабрина Уазани,Франк Гастамбид,Бернар Фарси,Малик Бенталха

О фильме:
Двадцать лет назад была снята первая часть нашумевшей франшизы под названием «Такси». Приключенческая киноистория за короткий промежуток времени обрела невероятную армию преданных поклонников. Все с огромным интересом наблюдали, как сумасшедший таксист гонял на своей шикарной тачке по улицам города. На этот раз бессменный создатель Люк Бессон решил подарить второе дыхание занимательной истории. Прежних персонажей увидеть здесь не удастся. Да и, автомобиль уже давно не желтого цвета. В качестве режиссера выступит популярный комедийный актер Франк Гастамбид. Мужчине не только написал сценарий, но и исполнил ключевую роль в пятом фильме. Его персонажу придется нелегко. Разумеется, герой вляпается в очередную криминальную передрягу. Зрители будут с упоением наблюдать за тем, как веселый, предприимчивый, непредсказуемый таксист вселяет страх всем своим клиентам. Не многие рискнут с этим парнем прокатиться в его прекрасной машинке. Он же никогда не задумывается о безопасности тех, кто сидит на заднем сидении. Известно, все проекты талантливого продюсера всегда оказывались кассовыми, невероятно успешными. Естественно, данная кинопремьера не станет исключением.

Страна: Франция
Продолжительность: 01:35:07
Перевод: Дублированный
Реклама: Присутствует

Файл
Кодек: XviD
Качество: TS
Видео: 1582 Кбит/с, 720x304, 29,970 (30000/1001) кадров/сек, 0.241 Бит/(Пиксели*Кадры)
Звук: Русский (AC3, 2 ch, 384 Кбит/с)
Субтитры: Нет
Семпл: http://multi-up.com/1199752
Полное имя : E:videoTaks1.5.2018.D.TS.14OOMB.avi
Формат : AVI
Формат/Информация : Audio Video Interleave
Размер файла : 1,37 Гбайт
Продолжительность : 1 ч. 38 м.
Общий поток : 1977 Кбит/сек
Программа кодирования : VirtualDubMod 1.5.10.3 | www.virtualdub-fr.org || (build 2550/release)
Библиотека кодирования : VirtualDubMod build 2550/release

Видео
Идентификатор : 0
Формат : MPEG-4 Visual
Профиль формата : Advanced [email protected]
Настройки формата : BVOP2
Параметр BVOP формата : 2
Параметр QPel формата : Нет
Параметр GMC формата : Без точки перехода
Параметр матрицы формата : Default (MPEG)
Идентификатор кодека : XVID
Идентификатор кодека/Подсказка : XviD
Продолжительность : 1 ч. 38 м.
Битрейт : 1582 Кбит/сек
Ширина : 720 пикселей
Высота : 304 пикселя
Соотношение сторон : 2,35:1
Частота кадров : 29,970 (30000/1001) кадров/сек
Цветовое пространство : YUV
Субдискретизация насыщенности : 4:2:0
Битовая глубина : 8 бит
Тип развёртки : Прогрессивная
Метод сжатия : С потерями
Бит/(Пиксели*Кадры) : 0.241
Размер потока : 1,09 Гбайт (80%)
Библиотека кодирования : XviD 1.2.1 (UTC 2008-12-04)

Аудио
Идентификатор : 1
Формат : AC-3
Формат/Информация : Audio Coding 3
Идентификатор кодека : 2000
Продолжительность : 1 ч. 38 м.
Вид битрейта : Постоянный
Битрейт : 384 Кбит/сек
Каналы : 2 канала
Расположение каналов : Front: L R
Частота : 48,0 КГц
Частота кадров : 31,250 кадров/сек (1536 SPF)
Битовая глубина : 16 бит
Метод сжатия : С потерями
Размер потока : 272 Мбайт (19%)
Выравнивание : Разделение по промежуткам
Продолжительность промежутка : 33 мс. (1,00 видеокадр)
Время предзагрузки промежутка : 500 мс.
ServiceKind/String : Complete Main
Внимание, присутствуют вставки голосовой и/или текстовой рекламы.
Источник http://blator.org

Трекер:  [ 28-Май-2018 09:20 ]

  

Скачать .torrent

Размер .torrent файла 14 KB


Размер: 1.37 GB
Хэш (hash) релиза: 09d2f6c0402dd8bd31e7b861b64098d2d360734e
Подписка на обновления:

Торренты, похожие на Такси 5 Taxi 5 скачать торрент

Форум Название Автор Размер S L Добавлен
Зарубежные фильмы 2016-2018 (Новинки зарубежного кино) ·· Такси 5 / Taxi 5 (Франк Гастамбид) [2018 г., боевик, комедия, криминал, приключения, TS] DUB Galfimbul 14676910081.37 GB 0 0 1526381490

13:51

15-Май-18

Зарубежные фильмы 2016-2018 (Новинки зарубежного кино) ·· Такси 5 / Taxi 5 (Франк Гастамбид) [2018 г., боевик, комедия, криминал, приключения, TS 720p] DUB Galfimbul 26180672832.44 GB 0 0 1526381488

13:51

15-Май-18

Зарубежные фильмы 2016-2018 (Новинки зарубежного кино) ·· Такси 5 / Taxi 5 (Франк Гастамбид) [2018 г., боевик, комедия, криминал, приключения, TS] | КОЛОБОК Galfimbul 14675107841.37 GB 0 0 1525073389

10:29

30-Апр-18

Зарубежные фильмы 2016-2018 (Новинки зарубежного кино) ·· Такси 5 / Taxi 5 (Франк Гастамбид) [2018 г., боевик, комедия, криминал, приключения, TS 720p] | КОЛОБОК Galfimbul 26017036682.42 GB 0 0 1525073386

10:29

30-Апр-18

Зарубежные сериалы ·· Такси / Taxi / Сезон: 5 / Серии: 2-24 (24) (Джеймс Берроуз / James Burrows) [1982, комедия, DVDRip] DVO (CBS Drama) + Original + Sub (Eng) Galfimbul 1179405083110.98 GB 0 0 1464412799

08:19

28-Май-16

Зарубежные сериалы ·· Такси / Taxi / Сезон: 5 / Серии: 2-11 (24) (Джеймс Берроуз / James Burrows) [1982, комедия, DVDRip] DVO (CBS Drama) + Original + Sub (Eng) Galfimbul 50491850794.7 GB 0 0 1463320582

16:56

15-Май-16

Зарубежные сериалы ·· Такси / Taxi / Сезон: 4 / Серии: 1, 3, 5-10, 12-24 (24) (Джеймс Берроуз / James Burrows) [1981, комедия, DVDRip] DVO (CBS Drama) + Original + Sub (Eng) Galfimbul 91058213898.48 GB 0 0 1463201139

07:45

14-Май-16

Зарубежные сериалы ·· Такси / Taxi / Сезон: 4 / Серии: 1, 3, 5-7, 9-10, 12-24 (24) (Джеймс Берроуз / James Burrows) [1981, комедия, DVDRip] DVO (CBS Drama) + Original + Sub (Eng) Galfimbul 86729856958.08 GB 0 0 1462765628

06:47

9-Май-16

Зарубежные сериалы ·· Такси / Taxi / Сезон: 2 / Серии: 1-2, 5 (24) (Джеймс Берроуз / James Burrows) [1979, комедия, DVDRip l AVC] DVO (CBS Drama) + Original + Sub (Eng) Galfimbul 13255325471.23 GB 0 0 1458995134

15:25

26-Мар-16

Зарубежные сериалы ·· Такси / Taxi / Сезон: 5 / Серии: 1-3, 6-8 из 24 (Джеймс Берроуз) [1982-1983, ситком, DVDRip-AVC] Original + Rus Subs (voorwater, zare) damien1990 20972722801.95 GB 0 0 1364422361

01:12

28-Мар-13

Еще никто не оставлял запись к записи скачать торрент Такси 5 Taxi 5 . Будь первым!

!Обратная связь