Latrelle Coulthard | Kally’s Mashup Assistir Kally’s Mashup 720p Dublado/Legendado Online O talento da Kally é descoberto pela Prof. Abrankhausen que a convida para estudar no Conservatório Allegro. Kally se muda da cidade onde morava e vai morar com o pai, Mike. Lá ela conhece a vizinha Tina e o Dante, e cria seu primeiro mashup. Ver Série Kally’s Mashup Dublado/Legendado Ver Série Kally’s Mashup Dublado/Legendado (2017) Assistir Séries ... | OpenLoadHD

Скачать через торрент Принц Щелкунчик The Nutcracker Prince Фильм бесплатно в хорошем качестве torrent

Скачивайте на UnionPeer.org фильмы через торрент без регистрации. Новинки кино в хорошем качестве через торрент. На UnionPeer.org можно скачать через торрент фильмы 2014 и 2015 годов. Самые новые фильмы.

Скачать торрент Принц Щелкунчик The Nutcracker Prince бесплатно через .torrent фильм мультфильм сериал

Статистика раздачи
Размер:  1.45 GB   |    Зарегистрирован:  27 дней   |    .torrent скачан:  41 раз   |   
Раздают:  1  
   
загрузка...
 
Автор Сообщение

Galfimbul

avatar Galfimbul


Принц Щелкунчик / The Nutcracker Prince

Страна: Канада
Жанр: фэнтези, приключения
Продолжительность: 01:10:21
Год выпуска: 1990
Перевод 1: Профессиональный (дублированный) Селена Интернешнл по заказу ОРТ
Перевод 2: Профессиональный (многоголосый) DVD Магия
Русские субтитры: нет

Режиссёр: Пол Шибли / Paul Schibli
Описание: Наступил Сочельник, канун Рождества, и все члены семьи Штальбаумов радостно разворачивают свои рождественские подарки. Когда восторги улеглись, семилетняя Клара получает еще один, весьма необыкновенный подарок — таинственного Щелкунчика.

Злая ведьма Мышильда заколдовала племянника ее любимого крестного Дроссельмейера и превратила его в деревянную игрушку — Щелкунчика. Чтобы снять заклятие Щелкунчик должен завоевать любовь Клары и сразить злобного мышиного короля.

Доп. информация: Звук 5.1 с DVD дутый, голоса во всех каналах. Оцифровка перевода Селена Интернешнл - Home Video. Синхронизация дубляжа - Dreven.

Семпл: http://sendfile.su/1422091

Качество: DVDRip
Формат: AVI
Видео: 704x528 (1.33:1), 25 fps, XviD build 73 ~2346 kbps avg, 0.25 bit/pixel
Аудио 1: 48 kHz, AC3 Dolby Digital, 2/0 (L,R) ch, ~192 kbps - Селена Интернешнл
Аудио 2: 48 kHz, AC3 Dolby Digital, 2/0 (L,R) ch, ~192 kbps - DVD Магия
Аудио 3: 48 kHz, AC3 Dolby Digital, 2/0 (L,R) ch, ~192 kbps Eng
Субтитры: отсутствуют

...904789
http://screenshotcomparison.com/comparison/114427 звук 5.1 дутый, голоса во всех каналах
...4523828
http://screenshotcomparison.com/comparison/114428
GeneralComplete name : C:\Users\Vladimir\Desktop\111\The Nutcracker Prince.aviFormat : AVIFormat/Info : Audio Video InterleaveFile size : 1.45 GiBDuration : 1 h 10 minOverall bit rate : 2 944 kb/sWriting application : VirtualDubMod 1.5.10.3 (build 2550/release)Writing library : VirtualDubMod build 2550/release

VideoID : 0Format : MPEG-4 VisualFormat profile : Advanced [email protected] settings : BVOP2 / Custom MatrixFormat settings, BVOP : 2Format settings, QPel : NoFormat settings, GMC : No warppointsFormat settings, Matrix : CustomCodec ID : XVIDCodec ID/Hint : XviDDuration : 1 h 10 minBit rate : 2 349 kb/sWidth : 704 pixelsHeight : 528 pixelsDisplay aspect ratio : 4:3Frame rate : 25.000 FPSColor space : YUVChroma subsampling : 4:2:0Bit depth : 8 bitsScan type : ProgressiveCompression mode : LossyBits/(Pixel*Frame) : 0.253Stream size : 1.15 GiB (80%)Writing library : XviD 73

Audio #1ID : 1Format : AC-3Format/Info : Audio Coding 3Codec ID : 2000Duration : 1 h 10 minBit rate mode : ConstantBit rate : 192 kb/sChannel(s) : 2 channelsChannel positions : Front: L RSampling rate : 48.0 kHzFrame rate : 31.250 FPS (1536 SPF)Bit depth : 16 bitsCompression mode : LossyStream size : 96.6 MiB (7%)Alignment : Split accross interleavesInterleave, duration : 40 ms (1.00 video frame)Interleave, preload duratio : 500 msTitle : Селена ИнтернешнлService kind : Complete Main

Audio #2ID : 2Format : AC-3Format/Info : Audio Coding 3Codec ID : 2000Duration : 1 h 10 minBit rate mode : ConstantBit rate : 192 kb/sChannel(s) : 2 channelsChannel positions : Front: L RSampling rate : 48.0 kHzFrame rate : 31.250 FPS (1536 SPF)Bit depth : 16 bitsCompression mode : LossyStream size : 96.6 MiB (7%)Alignment : Split accross interleavesInterleave, duration : 40 ms (1.00 video frame)Interleave, preload duratio : 500 msTitle : DVD МагияService kind : Complete Main

Audio #3ID : 3Format : AC-3Format/Info : Audio Coding 3Codec ID : 2000Duration : 1 h 10 minBit rate mode : ConstantBit rate : 192 kb/sChannel(s) : 2 channelsChannel positions : Front: L RSampling rate : 48.0 kHzFrame rate : 31.250 FPS (1536 SPF)Bit depth : 16 bitsCompression mode : LossyStream size : 96.6 MiB (7%)Alignment : Split accross interleavesInterleave, duration : 40 ms (1.00 video frame)Interleave, preload duratio : 500 msService kind : Complete Main


Трекер:  [ 28-Май-2018 09:01 ]

  

Скачать .torrent

Размер .torrent файла 15 KB


Размер: 1.45 GB
Хэш (hash) релиза: 20d2d83b01be68824bea4746b0acf387cb1a598e
Подписка на обновления:

Еще никто не оставлял запись к записи скачать торрент Принц Щелкунчик The Nutcracker Prince . Будь первым!

!Обратная связь