Honey and Clover S2 | Hachimitsu to Clover S2 | 480p | DVDRip | Dual Audio | Choujigen Game Neptune | Tim Downie

Скачать через торрент Любимый во Франксе Darling in the FranXX бесплатно Аниме Все серии на русском torrent

Статистика раздачи
Размер:  20.47 GB   |    Зарегистрирован:  1 месяц 20 дней   |    .torrent скачан:  34 раза   |   
Раздают:  1  
   
загрузка...
 
Автор Сообщение

Galfimbul

avatar Galfimbul


Любимый во Франксе / Darling in the FranXX

Год выпуска: 2018
Страна: Япония
Жанр: приключения, фантастика, меха
Тип: TV
Продолжительность: 24 эп. по 24 мин.
Озвучка:

Многоголосая от Anzen & Cleo-chan & HectoR & Hekomi & MyAska & Sharon (AniLibria)

Русские субтитры: есть (отдельным файлом, формат .ass)
Перевод:

[Crunchyroll]

Хардсаб: Нет
Режиссер: Нисигори Ацуси
Студия: A-1 Pictures, Trigger

Описание: В далёком будущем Земля лежит в руинах, а остатки человечества обитают в «мобильном городе-форте» Плантация. Внутри города в месте под названием Мистелтейнн, также известном как «птичья клетка», готовят пилотов боевых роботов Franxx — детей, которые ничего не знают об окружающем мире и не представляют, что такое свобода. Их жизни — это череда боевых вылетов, а сражаются они с загадочными гигантскими чудовищами под названием Кёрю. Для этих детей пилотирование Franxx — единственный смысл жизни и способ доказать своё существование. Мальчик по имени Хиро (Код: 016) некогда считался вундеркиндом, но потом начал отставать от остальных, и в итоге его существование стало «необязательным» (не пилотируешь Franxx, значит, не существуешь). Но однажды перед ним предстаёт таинственная девушка по имени Ноль-Два, на голове у которой растут два маленьких рога, и говорит: «Наконец-то я нашла тебя, дорогой».

Качество: Blu-Ray Remux
Формат: MKV
Видео кодек: AVC
Аудио кодек: FLAC
Видео: 1920x1080 (16:9) 23,976 fps ~36,8 Mbps 8bit
Аудио:
Jap FLAC, 48000Hz, ~1410 Kbps, 2ch
RUS (ext) AAC, 48000Hz, ~192 Kbps, 2ch

Чаптеры присутствуют.
01. Один и одна
02. Что значит «соединиться»
03. Сражающаяся кукла
04. Взмахи крыльев
05. Твои шипы и мой символ
06. Любимый во Франксе
07. Мораторий падающих звёзд
08. Мальчики и девочки
09. Треугольная бомба
10. Вечный город
11. Обмен партнёрами
12. Сад, с которого всё началось
13. Принц и демоница
14. Преступление и признание
15. Двуглавая птица
16. Как мы коротали дни
17. Рай
18. Когда цветёт вишня
19. Те, кому не стать людьми
Общее
Уникальный идентификатор : 308839990833900782441894914450572121148 (0xE8586B2BCD8980693BED745F5EBB143C)
Полное имя : Z:\Anime Release - working\Darling\[anti-raws]Darling in the FranXX ep.01[BDRemux].mkv
Формат : Matroska
Версия формата : Version 4 / Version 2
Размер файла : 6,57 Гбайт
Продолжительность : 24 м. 2 с.
Режим общего битрейта : Переменный
Общий поток : 39,1 Мбит/сек
Дата кодирования : UTC 2018-05-27 17:28:47
Программа кодирования : mkvmerge v23.0.0 ('The Bride Said No') 64-bit
Библиотека кодирования : libebml v1.3.6 + libmatroska v1.4.9

Видео
Идентификатор : 2
Формат : AVC
Формат/Информация : Advanced Video Codec
Профиль формата : [email protected]
Настройки формата : CABAC / 4 Ref Frames
Параметр CABAC формата : Да
Параметр RefFrames формата : 4 кадра
Идентификатор кодека : V_MPEG4/ISO/AVC
Продолжительность : 24 м. 2 с.
Вид битрейта : Переменный
Битрейт : 37,7 Мбит/сек
Максимальный битрейт : 40,0 Мбит/сек
Ширина : 1920 пикселей
Высота : 1080 пикселей
Соотношение сторон : 16:9
Режим частоты кадров : Постоянный
Частота кадров : 23,976 (24000/1001) кадра/сек
Цветовое пространство : YUV
Субдискретизация насыщенности : 4:2:0
Битовая глубина : 8 бит
Тип развёртки : Прогрессивная
Бит/(Пиксели*Кадры) : 0.759
Размер потока : 6,33 Гбайт (96%)
Default : Нет
Forced : Нет

Аудио
Идентификатор : 1
Формат : FLAC
Формат/Информация : Free Lossless Audio Codec
Идентификатор кодека : A_FLAC
Продолжительность : 24 м. 2 с.
Вид битрейта : Переменный
Битрейт : 1409 Кбит/сек
Каналы : 2 канала
Расположение каналов : Front: L R
Частота : 48,0 КГц
Частота кадров : 11,719 кадров/сек (4096 SPF)
Битовая глубина : 24 бит
Размер потока : 242 Мбайт (4%)
Библиотека кодирования : libFLAC 1.2.1 (UTC 2007-09-17)
Язык : Japanese
Default : Да
Forced : Нет

Меню
00:00:00.000 : en:00:00:00.000
00:02:51.046 : en:00:02:51.046
00:10:49.023 : en:00:10:49.023
...5506874
--HDTVRip

...5506596
...5506537
--WEBRip
...5566123
--BDRip

Эта раздача - BDRemux


Трекер:  [ 27-Май-2018 21:30 ]

  

Скачать .torrent

Размер .torrent файла 27 KB


Размер: 20.47 GB
Хэш (hash) релиза: 5b2f5d36286bf14bf8f38087108c3780d1a20198
Подписка на обновления:

Торренты, похожие на Любимый во Франксе Darling in the FranXX скачать торрент

Форум Название Автор Размер S L Добавлен
Аниме | Rips ·· Любимый во Франксе / Darling in the Franxx [TV] [01-05 из 24] [Без хардсаба] [RUS(int), JAP+SUB] [2017, приключения, фантастика, меха, HDTVRip] [HWP] Galfimbul 15025293181.4 GB 0 0 1518445905

17:31

12-Фев-18

Еще никто не оставлял запись к записи скачать торрент Любимый во Франксе Darling in the FranXX . Будь первым!

!Обратная связь