Truy Tìm Ký Ức Total Recall 118 phút HD | TheVideo | Princess Agents: Season ...

Скачать через торрент [MULT] Гадкий я 3 Despicable Me 3 бесплатно русская версия torrent активатор

Статистика раздачи
Размер:  1.33 GB   |    Зарегистрирован:  28 дней   |    .torrent скачан:  23 раза   |   
Раздают:  1  
   
загрузка...
 
Автор Сообщение

Galfimbul

avatar Galfimbul


Гадкий я 3 / Despicable Me 3


Год выпуска: 2017
Страна: США
Жанр: мультфильм
Продолжительность: 01:29:40
Перевод №1: русский Профессиональный (полное дублирование) Blu-ray EUR
Перевод №2: украинский Профессиональный (полное дублирование)
Оригинальная дорожка: Есть
Субтитры: русские (форсированные, полные), украинские (форсированные), английские (полные, SDH, SDH-Цветные)
Режиссеры: Эрик Гуильон / Eric Guillon, Кайл Балда / Kyle Balda, Пьер Коффан / Pierre Coffin
Роли озвучивали: Стив Карелл, Кристен Уиг, Трей Паркер, Миранда Косгров, Дэна Гайер, Нев Шаррел, Пьер Коффан, Стив Куган, Джули Эндрюс, Дженни Слейт, Майкл Битти, Энди Найман и другие .
Описание: Грядет третье пришествие. Многодетный суперагент, роковая красотка и бессмертные миньоны на подходе. Готовьтесь. Они будут править миром .
Релиз группы

Качество: HDRip / рип с BDRip 720p
Формат: MP4
Видео кодек: H.264
Аудио кодек: AAC
Видео: 960x402 AR:2.39 1740 kbps 23.976 fps
Аудио №1: [Russian] 2ch 48 kHz 128 kbps - [Dub] Профессиональный (полное дублирование) Blu-ray EUR
Аудио №2: [Ukrainian] 2ch 48 kHz 128 kbps - [Dub] Профессиональный (полное дублирование)
Аудио №3: [English] 2ch 48 kHz 128 kbps - Original
avs [info]: 960x402p 1:1 @ 24000/1001 fps (cfr)
x264 [info]: using SAR=1/1
x264 [info]: using cpu capabilities: MMX2 SSE2Fast SSSE3 SSE4.2 AVX FMA3 BMI2 AVX2
x264 [info]: profile High, level 4.1

x264 [info]: frame I:1063 Avg QP:16.12 size: 68016
x264 [info]: frame P:32368 Avg QP:19.57 size: 17382
x264 [info]: frame B:95570 Avg QP:21.64 size: 5571
x264 [info]: consecutive B-frames: 3.5% 4.3% 12.1% 32.2% 14.4% 25.8% 3.8% 2.1% 1.0% 0.8%
x264 [info]: mb I I16..4: 3.8% 66.0% 30.3%
x264 [info]: mb P I16..4: 0.8% 8.9% 2.7% P16..4: 31.0% 33.3% 11.5% 0.0% 0.0% skip:11.9%
x264 [info]: mb B I16..4: 0.1% 1.4% 0.5% B16..8: 29.6% 17.6% 3.2% direct: 3.9% skip:43.6% L0:41.6% L1:43.3% BI:15.2%
x264 [info]: 8x8 transform intra:70.4% inter:59.0%
x264 [info]: direct mvs spatial:96.4% temporal:3.6%
x264 [info]: coded y,uvDC,uvAC intra: 85.9% 89.4% 68.4% inter: 18.7% 18.7% 9.4%
x264 [info]: i16 v,h,dc,p: 16% 14% 3% 67%
x264 [info]: i8 v,h,dc,ddl,ddr,vr,hd,vl,hu: 13% 11% 4% 9% 13% 12% 14% 11% 14%
x264 [info]: i4 v,h,dc,ddl,ddr,vr,hd,vl,hu: 26% 10% 4% 7% 12% 11% 12% 8% 11%
x264 [info]: i8c dc,h,v,p: 31% 29% 21% 20%
x264 [info]: Weighted P-Frames: Y:6.8% UV:4.7%
x264 [info]: ref P L0: 50.6% 10.4% 15.9% 6.6% 4.9% 3.7% 3.5% 2.1% 2.0% 0.2% 0.0%
x264 [info]: ref B L0: 73.4% 10.8% 5.9% 3.7% 2.4% 1.8% 1.3% 0.5%
x264 [info]: ref B L1: 94.4% 5.6%
x264 [info]: kb/s:1735.67

encoded 129001 frames, 17.46 fps, 1735.67 kb/s
ОбщееПолное имя : D:\Torrents\Despicable Me 3.2017.HDRip.x264.960x.rip by Frost O.S.mp4Формат : MPEG-4Профиль формата : Base MediaИдентификатор кодека : isom (isom)Размер файла : 1,33 ГбайтПродолжительность : 1 ч. 29 м.Режим общего битрейта : ПеременныйОбщий поток : 2128 Кбит/секДата кодирования : UTC 2018-05-27 17:24:55Дата пометки : UTC 2018-05-27 17:24:55Программа кодирования : My MP4Box GUI 0.6.0.6

ВидеоИдентификатор : 1Формат : AVCФормат/Информация : Advanced Video CodecПрофиль формата : [email protected]Настройки формата : CABAC / 9 Ref FramesПараметр CABAC формата : ДаПараметр RefFrames формата : 9 кадровИдентификатор кодека : avc1Идентификатор кодека/Информация : Advanced Video CodingПродолжительность : 1 ч. 29 м.Битрейт : 1740 Кбит/секМаксимальный битрейт : 6834 Кбит/секШирина : 960 пикселейВысота : 402 пикселяСоотношение сторон : 2,40:1Режим частоты кадров : ПостоянныйЧастота кадров : 23,976 (24000/1001) кадра/секЦветовое пространство : YUVСубдискретизация насыщенности : 4:2:0Битовая глубина : 8 битТип развёртки : ПрогрессивнаяБит/(Пиксели*Кадры) : 0.188Размер потока : 1,09 Гбайт (82%)Заголовок : Despicable Me 3.2017.HDRip.x264.960x.rip by Frost O.SБиблиотека кодирования : x264 core 152 r2851 ba24899Настройки программы : cabac=1 / ref=9 / deblock=1:-2:-1 / analyse=0x3:0x113 / me=umh / subme=11 / psy=1 / psy_rd=0.95:0.00 / mixed_ref=1 / me_range=32 / chroma_me=1 / trellis=2 / 8x8dct=1 / cqm=0 / deadzone=21,11 / fast_pskip=0 / chroma_qp_offset=-2 / threads=6 / lookahead_threads=1 / sliced_threads=0 / nr=0 / decimate=0 / interlaced=0 / bluray_compat=0 / constrained_intra=0 / bframes=9 / b_pyramid=2 / b_adapt=2 / b_bias=0 / direct=3 / weightb=1 / open_gop=0 / weightp=2 / keyint=250 / keyint_min=23 / scenecut=40 / intra_refresh=0 / rc=2pass / mbtree=0 / bitrate=1740 / ratetol=1.0 / qcomp=0.70 / qpmin=0 / qpmax=69 / qpstep=4 / cplxblur=20.0 / qblur=0.5 / ip_ratio=1.40 / pb_ratio=1.30 / aq=2:0.90Дата кодирования : UTC 2018-05-27 17:11:58Дата пометки : UTC 2018-05-27 17:25:17Цветовой диапазон : LimitedОсновные цвета : BT.709Характеристики трансфера : BT.709Коэффициенты матрицы : BT.709

Аудио #1Идентификатор : 2Формат : AACФормат/Информация : Advanced Audio CodecПрофиль формата : LCИдентификатор кодека : mp4a-40-2Продолжительность : 1 ч. 29 м.Вид битрейта : ПеременныйБитрейт : 128 Кбит/секМаксимальный битрейт : 134 Кбит/секКаналы : 2 каналаРасположение каналов : Front: L RЧастота : 48,0 КГцЧастота кадров : 46,875 кадров/сек (1024 SPF)Метод сжатия : С потерямиРазмер потока : 82,1 Мбайт (6%)Заголовок : Russian / Dub, Blu-ray EURДата кодирования : UTC 2018-05-27 17:24:57Дата пометки : UTC 2018-05-27 17:25:17

Аудио #2Идентификатор : 3Формат : AACФормат/Информация : Advanced Audio CodecПрофиль формата : LCИдентификатор кодека : mp4a-40-2Продолжительность : 1 ч. 29 м.Вид битрейта : ПеременныйБитрейт : 128 Кбит/секМаксимальный битрейт : 138 Кбит/секКаналы : 2 каналаРасположение каналов : Front: L RЧастота : 48,0 КГцЧастота кадров : 46,875 кадров/сек (1024 SPF)Метод сжатия : С потерямиРазмер потока : 82,1 Мбайт (6%)Заголовок : Ukrainian / DubДата кодирования : UTC 2018-05-27 17:25:12Дата пометки : UTC 2018-05-27 17:25:17

Аудио #3Идентификатор : 4Формат : AACФормат/Информация : Advanced Audio CodecПрофиль формата : LCИдентификатор кодека : mp4a-40-2Продолжительность : 1 ч. 29 м.Вид битрейта : ПеременныйБитрейт : 128 Кбит/секМаксимальный битрейт : 137 Кбит/секКаналы : 2 каналаРасположение каналов : Front: L RЧастота : 48,0 КГцЧастота кадров : 46,875 кадров/сек (1024 SPF)Метод сжатия : С потерямиРазмер потока : 82,1 Мбайт (6%)Заголовок : English / OriginalДата кодирования : UTC 2018-05-27 17:25:14Дата пометки : UTC 2018-05-27 17:25:17

Текст #1Идентификатор : 5Формат : Timed TextИдентификатор кодека : tx3gПродолжительность : 1 ч. 11 м.Вид битрейта : ПеременныйБитрейт : 2 бит/секРазмер потока : 1,04 Кбайт (0%)Заголовок : Russian / ForcedForced : НетДата кодирования : UTC 2018-05-27 17:25:17Дата пометки : UTC 2018-05-27 17:25:17

Текст #2Идентификатор : 6Формат : Timed TextИдентификатор кодека : tx3gПродолжительность : 1 ч. 21 м.Вид битрейта : ПеременныйБитрейт : 93 бит/секРазмер потока : 56,0 Кбайт (0%)Заголовок : Russian / FullForced : НетДата кодирования : UTC 2018-05-27 17:25:17Дата пометки : UTC 2018-05-27 17:25:17

Текст #3Идентификатор : 7Формат : Timed TextИдентификатор кодека : tx3gПродолжительность : 1 ч. 21 м.Вид битрейта : ПеременныйБитрейт : 2 бит/секРазмер потока : 1,20 Кбайт (0%)Заголовок : Ukrainian / ForcedForced : НетДата кодирования : UTC 2018-05-27 17:25:17Дата пометки : UTC 2018-05-27 17:25:17

Текст #4Идентификатор : 8Формат : Timed TextИдентификатор кодека : tx3gПродолжительность : 1 ч. 21 м.Вид битрейта : ПеременныйБитрейт : 59 бит/секРазмер потока : 35,3 Кбайт (0%)Заголовок : English / FullForced : НетДата кодирования : UTC 2018-05-27 17:25:17Дата пометки : UTC 2018-05-27 17:25:17

Текст #5Идентификатор : 9Формат : Timed TextИдентификатор кодека : tx3gПродолжительность : 1 ч. 21 м.Вид битрейта : ПеременныйБитрейт : 134 бит/секРазмер потока : 80,6 Кбайт (0%)Заголовок : English / SDHForced : НетДата кодирования : UTC 2018-05-27 17:25:17Дата пометки : UTC 2018-05-27 17:25:17

Текст #6Идентификатор : 10Формат : Timed TextИдентификатор кодека : tx3gПродолжительность : 1 ч. 21 м.Вид битрейта : ПеременныйБитрейт : 109 бит/секРазмер потока : 65,5 Кбайт (0%)Заголовок : English / SDH ColoredForced : НетДата кодирования : UTC 2018-05-27 17:25:17Дата пометки : UTC 2018-05-27 17:25:17


Трекер:  [ 27-Май-2018 20:36 ]

  

Скачать .torrent

Размер .torrent файла 14 KB


Размер: 1.33 GB
Хэш (hash) релиза: 91922b2975b671cd010ae330592aa00a02010ebc

Еще никто не оставлял запись к записи скачать торрент [MULT] Гадкий я 3 Despicable Me 3 . Будь первым!

!Обратная связь