Inazuma Eleven | Michael B. Jordan | Elle UK – July 2018

Скачать через торрент Кид против Кэт Kid vs. Kat Фильм бесплатно в хорошем качестве torrent

Скачивайте на UnionPeer.org фильмы через торрент без регистрации. Новинки кино в хорошем качестве через торрент. На UnionPeer.org можно скачать через торрент фильмы 2014 и 2015 годов. Самые новые фильмы.

Скачать торрент Кид против Кэт Kid vs. Kat бесплатно через .torrent фильм мультфильм сериал

Статистика раздачи
Размер:  18.62 GB   |    Зарегистрирован:  28 дней   |    .torrent скачан:  25 раз   |   
Раздают:  1  
   
загрузка...
 
Автор Сообщение

Galfimbul

avatar Galfimbul


Кид против Кэт / Kid vs. Kat

Страна: Канада
Жанр: мультсериал, комедия
Продолжительность серии: ~00:22:00
Год выпуска: 2011
Перевод: Профессиональный (дублированный)
Русские субтитры: нет

Режиссёр: Роб Бутилье/Rob Boutilier
Описание: Kid vs Kat («Кид ви-эс Кэт» или «Кид версус Кэт» — рус. «Ребенок против Кота») — канадский мультсериал, созданный компанией Studio B Productions для Jetix Europe и YTV[1]. Мультсериал посвящён напряжённым взаимоотношениям 14-летнего инопланетного кота с земным 10-летним мальчиком своей сестрёнки, который на самом деле является агентом.Милли Бартенбёргер приносит в дом земного кота неизвестного происхождения. С этого момента жизнь Купа, брата Милли, переворачивается — кот оказывается инопланетным агентом, пытающимся Купа уничтожить. Куп вынужден противостоять коту один (или вместе со своим другом Деннисом), так как все доказательства инопланетного происхождения кота тем или иным образом пропадают, и рассказам Купа о злом коте никто не верит.Релиз: DisneyJazz
Доп. информация: Видео - iTunes, из сети. Звук брался из раздачи afedrenkv, пропуски на битые и пропущенные серии - из сети. Из раздачи Александр Пейн взял лишь часть оформления. В общем - спасибо за записи сериала.

Семпл: http://multi-up.com/1199678

Качество: WEB-DL 1080p
Формат: MKV
Видео: AVC (H264), 1920x1080, 23.976fps, 5640 kbps
Аудио: AC3, 48.0 Hz, 2 ch, 192 kbps
Аудио 2: AAC, 48.0 Hz, 2 ch, 160 kbps
Аудио 3: AC3, 48.0 Hz, 5.1 ch, 384 kbps
Субтитры: отсутствуют
GeneralUnique ID : 195602800140730174445064983014127880142 (0x9327BA9FB978A2329804CA24451AC7CE)Complete name : N:\Kid.vs.Kat.S02.2010.WEB-DL.1080p.Rus.Eng\Kid.vs.Kat.S02E01.Something.About.Fiona,02.Tickled.Pink.WEB-DL.1080p.Rus.Eng.mkvFormat : MatroskaFormat version : Version 4 / Version 2File size : 908 MiBDuration : 22mn 31sOverall bit rate : 5 638 KbpsMovie name : Кид VS Кэт S02E01 Куп и Фиона, S02E02 Слабое место котаEncoded date : UTC 2018-05-27 13:37:41Writing application : mkvmerge v6.6.0 ('The Edge Of The In Between') built on Dec 1 2013 17:55:00Writing library : libebml v1.3.0 + libmatroska v1.4.1Attachment : Yes

VideoID : 1Format : AVCFormat/Info : Advanced Video CodecFormat profile : [email protected] settings, CABAC : YesFormat settings, ReFrames : 4 framesCodec ID : V_MPEG4/ISO/AVCDuration : 22mn 31sWidth : 1 920 pixelsHeight : 1 080 pixelsDisplay aspect ratio : 16:9Frame rate mode : ConstantFrame rate : 23.976 fpsColor space : YUVChroma subsampling : 4:2:0Bit depth : 8 bitsScan type : ProgressiveLanguage : EnglishDefault : YesForced : NoColor primaries : BT.709Transfer characteristics : BT.709Matrix coefficients : BT.709

Audio #1ID : 2Format : AC-3Format/Info : Audio Coding 3Mode extension : CM (complete main)Format settings, Endianness : BigCodec ID : A_AC3Duration : 22mn 31sBit rate mode : ConstantBit rate : 192 KbpsChannel(s) : 2 channelsChannel positions : Front: L RSampling rate : 48.0 KHzBit depth : 16 bitsCompression mode : LossyStream size : 30.9 MiB (3%)Language : RussianDefault : YesForced : No

Audio #2ID : 3Format : AACFormat/Info : Advanced Audio CodecFormat profile : LCCodec ID : A_AACDuration : 22mn 31sChannel(s) : 2 channelsChannel positions : Front: L RSampling rate : 48.0 KHzCompression mode : LossyTitle : StereoLanguage : EnglishDefault : NoForced : No

Audio #3ID : 4Format : AC-3Format/Info : Audio Coding 3Mode extension : CM (complete main)Format settings, Endianness : BigCodec ID : A_AC3Duration : 22mn 31sBit rate mode : ConstantBit rate : 384 KbpsChannel(s) : 6 channelsChannel positions : Front: L C R, Side: L R, LFESampling rate : 48.0 KHzBit depth : 16 bitsCompression mode : LossyStream size : 61.9 MiB (7%)Title : 5.1Language : EnglishDefault : NoForced : No
Куп - Марина Бакина
Харли - Мария Бакина
Папа - Виктор Бакин
Милли - Дарья Фролова
Миссис Мансон - Дарья Фролова
Лорн - Дарья Фролова
Фиона - Елена Войновская
Деннис - Елена Войновская
Кид vs Кэт S02E01 Куп и Фиона, S02E02 Слабое место кота
Кид vs Кэт S02E03 Кот - повелитель зомби, S02E04 Дэнис спасает мир
Кид vs Кэт S02E05 Хомяк-завоеватель, S02E05 Что посеешь, то и пожнёшь
Кид vs Кэт s02e07 Капитан Бластероид спешит на помощь, s02e08 Папа-крыс
Кид vs Кэт S02e09 Генеральная уборка S02e10 Куп прищелец
Кид vs Кэт s02e11 Скромный герой, s02e12 Лови волну с Купом
Кид vs Кэт s02e13 Добавь жару, s02e14 Берегите нашу планету
Кид vs Кэт s02e15e16 Кот и мир будущего (часть 1я и часть 2я)
Кид vs Кэт s02e17 Таинственный мир канализации, s02e18 5 секунд на спасение Земли
Кид vs Кэт s02e19 Собака навырост, s02e20 Хранитель робот
Кид vs Кэт S02E21 Котенок с острыми коготками, S02E22 Неудачный обмен
Кид vs Кэт S02E23 Семейство на отдыхе, S02E24 Кот похититель овец
Кид vs Кэт S02E25 Куп-дворецкий кота, S02E26 Кот-невидимка
Кид vs Кэт S02E27 Куп в кошачьей шкуре, S02E28 Сокровище старухи Мансон
Кид vs Кэт S02E29 Кот и кресло-качалка, S02E30 Всё за кошачий корм
Кид vs Кэт S02E31 Король гномов, S02E32 Навстречу приключениям
Кид vs Кэт S02E33 Хомяк возвращается, S02E34 День рождения
Кид vs Кэт S02E35 Игры разума, S02E36 Дорожные приключения
Кид vs Кэт S02E37 Потерянная память, S02E38 Кино без границ
Кид vs Кэт S02E39 Комки шерсти атакуют, S02E40 День ход-дога
Кид vs Кэт S02E41 Куп-звезда футбола, S02E42 Назад в прошлое
Кид vs Кэт S02E43 Куп против мороженщика, S02E44 Талисман на удачу
Кид vs Кэт S02E45 Особо опасен, S02E46 Бриллиантовый кот
Кид vs Кэт S02E47 Дом с привидениями, S02E48 Кот в твой голове
Кид vs Кэт S02E49 Куп против Миссис Мансон, S02E50 Миникуп
Кид vs Кэт S02E51E52 Кот возвращается домой часть 1 и 2
Предыдущие и альтернативные раздачи

Трекер:  [ 27-Май-2018 17:54 ]

  

Скачать .torrent

Размер .torrent файла 96 KB


Размер: 18.62 GB
Хэш (hash) релиза: 7358b6f4c2c7507dffc9b3e42d4788b660ce7988
Подписка на обновления:

Торренты, похожие на Кид против Кэт Kid vs. Kat скачать торрент

Форум Название Автор Размер S L Добавлен
Мультсериалы ·· Кид против Кэт / Kid vs. Kat / Сезон 1, 2 / Серии 1-50 из 52 (Роб Бутилье / Rob Boutilier) [2008-2011, Мультсериал, SATRip] L 95389637748.88 GB 0 0 1326746381

23:39

16-Янв-12

Еще никто не оставлял запись к записи скачать торрент Кид против Кэт Kid vs. Kat . Будь первым!

!Обратная связь