Huntz Hall | Bernard Punsly | Joe Downing

Скачать через торрент [VIDEO] Джек – покоритель великанов Jack the Giant Slayer бесплатно русская версия torrent активатор

Статистика раздачи
Размер:  2.7 GB   |    Зарегистрирован:  28 дней   |    .torrent скачан:  23 раза   |   
Раздают:  1  
   
загрузка...
 
Автор Сообщение

Galfimbul

avatar Galfimbul




Джек – покоритель великанов / Jack the Giant Slayer

Год выпуска: 2013
Страна: США
Жанр: фэнтези, приключения
Продолжительность: 01:54:16
Перевод №1: русский Профессиональный (полное дублирование) BD CEE
Перевод №2: украинский Профессиональный (полное дублирование) BD CEE
Оригинальная дорожка: Есть Английская
Субтитры: русские (форсированные, полные), английские (полные)
Режиссер: Брайан Сингер / Bryan Singer
В ролях: Николас Холт, Элинор Томлинсон, Юэн МакГрегор, Стэнли Туччи, Иэн МакШейн, Билл Найи, Джон Кассир, Бен Дэниелс, Юэн Бремнер, Эдди Марсан .
Описание: Простой парень Джек пожалев монаха отдает лошадь, которую должен был продать и на вырученные деньги отремонтировать дом, получает взамен несколько бобов. Вернувшись домой он пытается объяснить дяде почему он отдал лошадь, но дядя не желая слушать отправляется в город, чтобы получить хоть какие-нибудь деньги. В это время из за плохой погоды в дом к Джеку попадает принцесса Изабель. Вот тут начинается самое интересное. Случайно упавший на землю боб, начинает быстро прорастать, унося в небо дом в котором заперта принцесса. И вот Джек вместе с войском короля отправляется на ее поиски .
Релиз группы

Качество: BDRip / рип с Blu-ray disc 1080p CEE
Формат: MP4
Видео кодек: H.264
Аудио кодек: AAC
Видео: 1280x532 AR:2.41 3000 kbps 23.976 fps
Аудио №1: [Russian] 2ch 48 kHz 128 kbps - [Dub] Профессиональный (полное дублирование) BD CEE
Аудио №2: [Ukrainian] 2ch 48 kHz 128 kbps - [Dub] Профессиональный (полное дублирование) BD CEE
Аудио №3: [English] 2ch 48 kHz 128 kbps - [Original] Английский
avs [info]: 1280x532p 1:1 @ 24000/1001 fps (cfr)
x264 [info]: using SAR=1/1
x264 [info]: using cpu capabilities: MMX2 SSE2Fast SSSE3 SSE4.2 AVX FMA3 BMI2 AVX2
x264 [info]: profile High, level 4.1

x264 [info]: frame I:1570 Avg QP:15.53 size: 92764
x264 [info]: frame P:46251 Avg QP:19.20 size: 27993
x264 [info]: frame B:116388 Avg QP:21.24 size: 9686
x264 [info]: consecutive B-frames: 5.2% 7.4% 16.7% 32.0% 14.0% 17.6% 3.3% 2.6% 1.1%
x264 [info]: mb I I16..4: 3.7% 76.2% 20.1%
x264 [info]: mb P I16..4: 1.0% 11.7% 2.3% P16..4: 32.0% 34.1% 10.5% 0.0% 0.0% skip: 8.3%
x264 [info]: mb B I16..4: 0.1% 2.1% 0.5% B16..8: 31.9% 18.5% 2.8% direct: 4.5% skip:39.4% L0:40.7% L1:43.5% BI:15.8%
x264 [info]: 8x8 transform intra:76.8% inter:61.1%
x264 [info]: direct mvs spatial:95.0% temporal:5.0%
x264 [info]: coded y,uvDC,uvAC intra: 82.4% 76.0% 43.5% inter: 22.8% 16.3% 6.1%
x264 [info]: i16 v,h,dc,p: 17% 9% 6% 68%
x264 [info]: i8 v,h,dc,ddl,ddr,vr,hd,vl,hu: 12% 7% 5% 9% 13% 13% 13% 13% 15%
x264 [info]: i4 v,h,dc,ddl,ddr,vr,hd,vl,hu: 35% 5% 6% 6% 11% 10% 10% 8% 9%
x264 [info]: i8c dc,h,v,p: 33% 29% 21% 17%
x264 [info]: Weighted P-Frames: Y:11.8% UV:7.0%
x264 [info]: ref P L0: 56.3% 13.2% 13.6% 5.2% 3.9% 3.3% 2.4% 1.8% 0.3% 0.0%
x264 [info]: ref B L0: 80.1% 9.4% 4.8% 2.3% 1.6% 1.3% 0.6%
x264 [info]: ref B L1: 95.9% 4.1%
x264 [info]: kb/s:2999.23

encoded 164209 frames, 10.38 fps, 2999.23 kb/s
ОбщееПолное имя : D:\Torrents\Jack the Giant Slayer.2013.BDRip.x264.1280x.rip by Frost O.S.mp4Формат : MPEG-4Профиль формата : Base MediaИдентификатор кодека : isom (isom)Размер файла : 2,70 ГбайтПродолжительность : 1 ч. 54 м.Режим общего битрейта : ПеременныйОбщий поток : 3387 Кбит/секДата кодирования : UTC 2018-05-27 14:21:14Дата пометки : UTC 2018-05-27 14:21:14Программа кодирования : My MP4Box GUI 0.6.0.6

ВидеоИдентификатор : 1Формат : AVCФормат/Информация : Advanced Video CodecПрофиль формата : [email protected]Настройки формата : CABAC / 8 Ref FramesПараметр CABAC формата : ДаПараметр RefFrames формата : 8 кадровИдентификатор кодека : avc1Идентификатор кодека/Информация : Advanced Video CodingПродолжительность : 1 ч. 54 м.Битрейт : 3000 Кбит/секМаксимальный битрейт : 13,8 Мбит/секШирина : 1280 пикселейВысота : 532 пикселяСоотношение сторон : 2,40:1Режим частоты кадров : ПостоянныйЧастота кадров : 23,976 (24000/1001) кадра/секЦветовое пространство : YUVСубдискретизация насыщенности : 4:2:0Битовая глубина : 8 битТип развёртки : ПрогрессивнаяБит/(Пиксели*Кадры) : 0.184Размер потока : 2,39 Гбайт (88%)Заголовок : Jack the Giant Slayer.2013.BDRip.x264.1280x.rip by Frost O.SБиблиотека кодирования : x264 core 152 r2851 ba24899Настройки программы : cabac=1 / ref=8 / deblock=1:-2:-2 / analyse=0x3:0x113 / me=umh / subme=11 / psy=1 / psy_rd=0.90:0.00 / mixed_ref=1 / me_range=32 / chroma_me=1 / trellis=2 / 8x8dct=1 / cqm=0 / deadzone=21,11 / fast_pskip=0 / chroma_qp_offset=-2 / threads=6 / lookahead_threads=1 / sliced_threads=0 / nr=0 / decimate=0 / interlaced=0 / bluray_compat=0 / constrained_intra=0 / bframes=8 / b_pyramid=2 / b_adapt=2 / b_bias=0 / direct=3 / weightb=1 / open_gop=0 / weightp=2 / keyint=250 / keyint_min=23 / scenecut=40 / intra_refresh=0 / rc=2pass / mbtree=0 / bitrate=3000 / ratetol=1.0 / qcomp=0.70 / qpmin=0 / qpmax=69 / qpstep=4 / cplxblur=20.0 / qblur=0.5 / ip_ratio=1.40 / pb_ratio=1.30 / aq=2:0.80Дата кодирования : UTC 2018-05-27 14:08:45Дата пометки : UTC 2018-05-27 14:21:52Цветовой диапазон : LimitedОсновные цвета : BT.709Характеристики трансфера : BT.709Коэффициенты матрицы : BT.709

Аудио #1Идентификатор : 2Формат : AACФормат/Информация : Advanced Audio CodecПрофиль формата : LCИдентификатор кодека : mp4a-40-2Продолжительность : 1 ч. 54 м.Вид битрейта : ПеременныйБитрейт : 128 Кбит/секМаксимальный битрейт : 138 Кбит/секКаналы : 2 каналаРасположение каналов : Front: L RЧастота : 48,0 КГцЧастота кадров : 46,875 кадров/сек (1024 SPF)Метод сжатия : С потерямиРазмер потока : 105 Мбайт (4%)Заголовок : Russian / Dub, BD CEEДата кодирования : UTC 2018-05-27 14:21:36Дата пометки : UTC 2018-05-27 14:21:52

Аудио #2Идентификатор : 3Формат : AACФормат/Информация : Advanced Audio CodecПрофиль формата : LCИдентификатор кодека : mp4a-40-2Продолжительность : 1 ч. 54 м.Вид битрейта : ПеременныйБитрейт : 128 Кбит/секМаксимальный битрейт : 138 Кбит/секКаналы : 2 каналаРасположение каналов : Front: L RЧастота : 48,0 КГцЧастота кадров : 46,875 кадров/сек (1024 SPF)Метод сжатия : С потерямиРазмер потока : 105 Мбайт (4%)Заголовок : Ukrainian / Dub, BD CEEДата кодирования : UTC 2018-05-27 14:21:44Дата пометки : UTC 2018-05-27 14:21:52

Аудио #3Идентификатор : 4Формат : AACФормат/Информация : Advanced Audio CodecПрофиль формата : LCИдентификатор кодека : mp4a-40-2Продолжительность : 1 ч. 54 м.Вид битрейта : ПеременныйБитрейт : 128 Кбит/секМаксимальный битрейт : 136 Кбит/секКаналы : 2 каналаРасположение каналов : Front: L RЧастота : 48,0 КГцЧастота кадров : 46,875 кадров/сек (1024 SPF)Метод сжатия : С потерямиРазмер потока : 105 Мбайт (4%)Заголовок : English / OriginalДата кодирования : UTC 2018-05-27 14:21:48Дата пометки : UTC 2018-05-27 14:21:52

Текст #1Идентификатор : 5Формат : Timed TextИдентификатор кодека : tx3gПродолжительность : 1 ч. 54 м.Вид битрейта : ПеременныйБитрейт : 0 бит/секРазмер потока : 84,0 байт (0%)Заголовок : Russian / ForcedForced : НетДата кодирования : UTC 2018-05-27 14:21:52Дата пометки : UTC 2018-05-27 14:21:52

Текст #2Идентификатор : 6Формат : Timed TextИдентификатор кодека : tx3gПродолжительность : 1 ч. 45 м.Вид битрейта : ПеременныйБитрейт : 72 бит/секРазмер потока : 55,5 Кбайт (0%)Заголовок : Russian / FullForced : НетДата кодирования : UTC 2018-05-27 14:21:52Дата пометки : UTC 2018-05-27 14:21:52

Текст #3Идентификатор : 7Формат : Timed TextИдентификатор кодека : tx3gПродолжительность : 1 ч. 54 м.Вид битрейта : ПеременныйБитрейт : 54 бит/секРазмер потока : 44,9 Кбайт (0%)Заголовок : English / FullForced : НетДата кодирования : UTC 2018-05-27 14:21:52Дата пометки : UTC 2018-05-27 14:21:52


Трекер:  [ 27-Май-2018 17:36 ]

  

Скачать .torrent

Размер .torrent файла 14 KB


Размер: 2.7 GB
Хэш (hash) релиза: 41bb7ef0edf90ccbe54f6c0c33d968b3e4e18564

Еще никто не оставлял запись к записи скачать торрент [VIDEO] Джек – покоритель великанов Jack the Giant Slayer . Будь первым!

!Обратная связь