MOVILES | CELULARES | Cyber & Mecha | The Hangover Part III

Скачать через торрент Кроткая бесплатно русская версия torrent активатор

Статистика раздачи
Размер:  4.29 GB   |    Зарегистрирован:  29 дней   |    .torrent скачан:  24 раза   |   
Раздают:  1  
   
загрузка...
 
Автор Сообщение

Galfimbul

avatar Galfimbul


Кроткая
-

6.248 / 10 6.90 / 10
Год выпуска: 2017
Страна: Франция, Россия, Германия, Латвия, Литва, Нидерланды, Украина
Жанр: Драма, детектив
Продолжительность: 02:22:50

Перевод: (Не требуется)
Оригинальная аудиодорожка: Есть
Cубтитры: Нет
Режиссёр: Сергей Лозница
Сценарий: Сергей Лозница
Продюсер: Марианна Слот, Мария Бэйкер, Гуннар Дедио
Оператор: Олег Муту
Художник: Кирилл Шувалов, Дорота Рокепло
Монтаж: Даниэлиус Коканаускис
В ролях: Василина Маковцева, Валериу Андрюцэ, Сергей Колесов, Дмитрий Быковский, Лия Ахеджакова, Алиса Кравцова, Константин Итунин, Николай Коляда, Сергей Федоров, Александр Замураев

Бюджет: €2 000 000
Сборы в России: $6 837

Мировая премьера: 25 мая 2017
Премьера (РФ): 23 ноября 2017, «GP Group»

Описание: По мотивам одноименного рассказа Ф. М. Достоевского. Действие происходит в наши дни. Женщине на почте возвращают посылку, посланную ею некоторое время назад мужу, отбывающему срок за преступление, которого он не совершал. Несчастная женщина, глубоко расстроенная, решает ехать к мужу, чтобы узнать, что случилось. Так начинается рассказ о путешествии, история абсурдной битвы против системы...
Качество исходника: Blu-Ray (NNMClub)
Качество: BDRip
Тип: HD (720p)
Контейнер: M4V
Видео: H.264, 1280x480, 2.667, 3 500 Kbps, 23.976 fps

Аудио 1: Русский/Оригинальная дорожка , AAC / 2.0 / 160 Kbps / 48.0 KHz
Аудио 2: Русский/Оригинальная дорожка , AC-3 / 5.1 / 640 Kbps / 48.0 KHz
Sort Name: Gentle Creature
XID: Apple:vendor_id:2017-1007433
contentID: 1322008973
Copyright: © 2017 Slot Machine
Screenwriters: Сергей Лозница
Producers: Марианна Слот, Мария Бэйкер, Гуннар Деди
Director: Сергей Лозница
Cast: Василина Маковцева, Валериу Андрюцэ, Сергей Колесов, Дмитрий Быковский, Лия Ахеджакова, Алиса Кравцова, Константин Итунин, Николай Коляда, Сергей Федоров, Александр Замураев
Studio: Slot Machine
Rating: 81
Long Description: Молодая женщина по пути на свидание к арестованному мужу встречает различных героев своего времени: от полицейских и правозащитников до проституток и бродяг.
Description: Молодая женщина по пути на свидание к арестованному мужу встречает различных героев своего времени: от полицейских и правозащитников до проституток и бродяг.
Release Date: 2017-05-25T08:00:00Z
Genre: Drama
Artist: Sergei Loznitsa
Name: A Gentle Creature
General
Complete name                            : /Users/imac/HandBrake/Krotkaya (720p HD).m4v
Format                                   : MPEG-4
Codec ID                                 : M4V  (M4V /M4A /mp42/isom)
File size                                : 4.29 GiB
Duration                                 : 2h 22mn
Overall bit rate mode                    : Variable
Overall bit rate                         : 4 302 Kbps
Movie name                               : A Gentle Creature
Performer                                : Sergei Loznitsa
Director                                 : Сергей Лозница
Actor                                    : Василина Маковцева / Валериу Андрюцэ / Сергей Колесов / Дмитрий Быковский / Лия Ахеджакова / Алиса Кравцова / Константин Итунин / Николай Коляда / Сергей Федоров / Александр Замураев
Screenplay by                            : Сергей Лозница
Producer                                 : Марианна Слот / Мария Бэйкер / Гуннар Деди
Production studio                        : Slot Machine
Genre                                    : Drama
ContentType                              : Short Film
Description                              : Молодая женщина по пути на свидание к арестованному мужу встречает различных героев своего времени: от полицейских и правозащитников до проституток и бродяг.
Recorded date                            : UTC 2017-05-25 08:00:00
Encoded date                             : UTC 2018-05-27 11:07:42
Tagged date                              : UTC 2018-05-27 11:13:33
Copyright                                : © 2017 Slot Machine
Cover                                    : Yes
Rating                                   : None
Title/Sort                               : Gentle Creature
LongDescription                          : Молодая женщина по пути на свидание к арестованному мужу встречает различных героев своего времени: от полицейских и правозащитников до проституток и бродяг.
HDVideo                                  : Yes
AppleStoreCatalogID                      : 1322008973
Vendor                                   : Apple:vendor_id:2017-1007433
ContentRating                            : nl-movie|16|500|

Video #1
ID                                       : 1
Format                                   : AVC
Format/Info                              : Advanced Video Codec
Format profile                           : [email protected]
Format settings                          : 3 Ref Frames
Format settings, CABAC                   : No
Format settings, ReFrames                : 3 frames
Codec ID                                 : avc1
Codec ID/Info                            : Advanced Video Coding
Duration                                 : 2h 22mn
Source duration                          : 2h 22mn
Bit rate                                 : 3 500 Kbps
Width                                    : 1 280 pixels
Height                                   : 480 pixels
Display aspect ratio                     : 2.667
Frame rate mode                          : Variable
Frame rate                               : 23.976 fps
Minimum frame rate                       : 23.810 fps
Maximum frame rate                       : 23.981 fps
Color space                              : YUV
Chroma subsampling                       : 4:2:0
Bit depth                                : 8 bits
Scan type                                : Progressive
Bits/(Pixel*Frame)                       : 0.238
Stream size                              : 3.49 GiB (81%)
Source stream size                       : 3.49 GiB (81%)
Title                                    : Main Program
Writing library                          : x264 core 155 r2893 b00bcaf
Encoding settings                        : cabac=0 / ref=3 / deblock=1:-3:-3 / analyse=0x3:0x113 / me=umh / subme=9 / psy=1 / psy_rd=1.00:0.15 / mixed_ref=1 / me_range=32 / chroma_me=1 / trellis=0 / 8x8dct=1 / cqm=0 / deadzone=21,11 / fast_pskip=0 / chroma_qp_offset=-2 / threads=15 / lookahead_threads=1 / sliced_threads=0 / nr=0 / decimate=0 / interlaced=0 / bluray_compat=0 / constrained_intra=0 / bframes=3 / b_pyramid=0 / b_adapt=2 / b_bias=0 / direct=1 / weightb=0 / open_gop=0 / weightp=0 / keyint=240 / keyint_min=24 / scenecut=40 / intra_refresh=0 / rc_lookahead=40 / rc=2pass / mbtree=1 / bitrate=3500 / ratetol=1.0 / qcomp=0.65 / qpmin=0 / qpmax=69 / qpstep=4 / cplxblur=20.0 / qblur=0.5 / vbv_maxrate=9500 / vbv_bufsize=9500 / nal_hrd=none / filler=0 / ip_ratio=1.40 / aq=1:1.10
Language                                 : French
Encoded date                             : UTC 2018-05-27 11:07:43
Tagged date                              : UTC 2018-05-27 11:07:51
Color range                              : Limited
Color primaries                          : BT.709
Transfer characteristics                 : BT.709
Matrix coefficients                      : BT.709
Menus                                    : 4,5

Video #2
ID                                       : 5
Format                                   : JPEG
Codec ID                                 : jpeg
Duration                                 : 2h 22mn
Bit rate mode                            : Variable
Bit rate                                 : 195 bps
Width                                    : 640 pixels
Height                                   : 240 pixels
Display aspect ratio                     : 2.667
Frame rate mode                          : Constant
Frame rate                               : 0.000 fps
Color space                              : YUV
Chroma subsampling                       : 4:2:0
Bit depth                                : 8 bits
Compression mode                         : Lossy
Stream size                              : 204 KiB (0%)
Title                                    : Chapter Images
Language                                 : French
Default                                  : No
Encoded date                             : UTC 2018-05-27 11:08:45
Tagged date                              : UTC 2018-05-27 11:08:45
Menu For                                 : 1
ColorSpace_ICC                           : RGB

Audio #1
ID                                       : 2
Format                                   : AAC
Format/Info                              : Advanced Audio Codec
Format profile                           : LC
Codec ID                                 : mp4a-40-2
Duration                                 : 2h 22mn
Source duration                          : 2h 22mn
Bit rate mode                            : Variable
Bit rate                                 : 157 Kbps
Maximum bit rate                         : 257 Kbps
Channel(s)                               : 2 channels
Channel positions                        : Front: L R
Sampling rate                            : 48.0 KHz
Frame rate                               : 46.875 fps (1024 SPF)
Compression mode                         : Lossy
Stream size                              : 161 MiB (4%)
Source stream size                       : 161 MiB (4%)
Title                                    : Russian Stereo
Language                                 : Russian
Default                                  : Yes
Alternate group                          : 1
Encoded date                             : UTC 2018-05-27 11:07:43
Tagged date                              : UTC 2018-05-27 11:08:44
Fallback From                            : 3

Audio #2
ID                                       : 3
Format                                   : AC-3
Format/Info                              : Audio Coding 3
Codec ID                                 : ac-3
Duration                                 : 2h 22mn
Bit rate mode                            : Constant
Bit rate                                 : 640 Kbps
Channel(s)                               : 6 channels
Channel positions                        : Front: L C R, Side: L R, LFE
Sampling rate                            : 48.0 KHz
Frame rate                               : 31.250 fps (1536 SPF)
Bit depth                                : 16 bits
Compression mode                         : Lossy
Stream size                              : 654 MiB (15%)
Title                                    : Russian DD 5.1
Language                                 : Russian
Service kind                             : Complete Main
Default                                  : Inherited From: 2
Alternate group                          : 1
Encoded date                             : UTC 2018-05-27 11:07:43
Tagged date                              : UTC 2018-05-27 11:08:44
Fallback To                              : 2

Menu #1
00:00:00.000                             : Chapter 1
00:13:31.646                             : Chapter 2
00:33:12.371                             : Chapter 3
00:46:57.531                             : Chapter 4
01:01:41.959                             : Chapter 5
01:41:51.916                             : Chapter 6

Menu #2
ID                                       : 4
Codec ID                                 : text
Duration                                 : 2h 22mn
Language                                 : French
Encoded date                             : UTC 2018-05-27 11:08:44
Tagged date                              : UTC 2018-05-27 11:08:44
Bit rate mode                            : CBR
Menu For                                 : 1
00:00:00.000                             : Chapter 1
00:13:31.646                             : Chapter 2
00:33:12.371                             : Chapter 3
00:46:57.531                             : Chapter 4
01:01:41.959                             : Chapter 5
01:41:51.916                             : Chapter 6
x264 [info]: frame I:943   Avg QP:12.38  size:119790
x264 [info]: frame P:78345 Avg QP:15.15  size: 35307
x264 [info]: frame B:126207 Avg QP:17.60  size:  6888
x264 [info]: consecutive B-frames:  2.2% 38.0% 28.9% 30.8%
x264 [info]: mb I  I16..4:  8.6% 55.2% 36.2%
x264 [info]: mb P  I16..4:  0.8%  4.0%  1.9%  P16..4: 44.3% 29.8% 14.0%  0.0%  0.0%    skip: 5.2%
x264 [info]: mb B  I16..4:  0.1%  0.4%  0.2%  B16..8: 39.2% 11.3%  2.0%  direct: 3.6%  skip:43.3%  L0:38.6% L1:50.1% BI:11.3%
x264 [info]: 8x8 transform intra:58.7% inter:38.8%
x264 [info]: coded y,uvDC,uvAC intra: 88.4% 87.6% 72.5% inter: 28.9% 24.6% 18.5%
x264 [info]: i16 v,h,dc,p: 51% 13%  8% 28%
x264 [info]: i8 v,h,dc,ddl,ddr,vr,hd,vl,hu: 10%  8%  7% 10% 14% 14% 13% 12% 11%
x264 [info]: i4 v,h,dc,ddl,ddr,vr,hd,vl,hu:  9%  9%  3% 11% 17% 16% 14% 11% 10%
x264 [info]: i8c dc,h,v,p: 52% 16% 19% 13%
x264 [info]: ref P L0: 71.1% 16.6% 12.3%
x264 [info]: ref B L0: 79.4% 20.6%
x264 [info]: kb/s:3498.73

Релиз подготовлен для просмотра на Apple TV, iPad, iPhone, iPod Touch.
Для просмотра данного релиза на компьютере с ОС Windows рекомендуется использовать VLC media player

Трекер:  [ 27-Май-2018 14:36 ]

  

Скачать .torrent

Размер .torrent файла 43 KB


Размер: 4.29 GB
Хэш (hash) релиза: f666950e9311b7b8ac5a718c3867130b8b023af8

Торренты, похожие на Кроткая скачать торрент

Форум Название Автор Размер S L Добавлен
Видео (iPhone/iPod Touch/iPad) ·· [ATV3] Кроткая (Сергей Лозница) [2017, Франция, Россия, Германия, Латвия, Литва, Нидерланды, Украина, Драма, детектив, BDRip, HD (1080p)] Original Galfimbul 94284640778.78 GB 0 0 1527419196

14:06

27-Май-18

Еще никто не оставлял запись к записи скачать торрент Кроткая . Будь первым!

!Обратная связь