Once Upon a Time - Season 7 (2017) | Ant-Man and the Wasp (2018) (New Trailer) | Pacific Rim: Uprising (2018)

Скачать через торрент [ATV3] Кроткая бесплатно русская версия torrent активатор

Статистика раздачи
Размер:  8.78 GB   |    Зарегистрирован:  29 дней   |    .torrent скачан:  23 раза   |   
Раздают:  1  
   
загрузка...
 
Автор Сообщение

Galfimbul

avatar Galfimbul


Кроткая
-

6.248 / 10 6.90 / 10
Год выпуска: 2017
Страна: Франция, Россия, Германия, Латвия, Литва, Нидерланды, Украина
Жанр: Драма, детектив
Продолжительность: 02:22:50

Перевод: (Не требуется)
Оригинальная аудиодорожка: Есть
Cубтитры: Нет
Режиссёр: Сергей Лозница
Сценарий: Сергей Лозница
Продюсер: Марианна Слот, Мария Бэйкер, Гуннар Дедио
Оператор: Олег Муту
Художник: Кирилл Шувалов, Дорота Рокепло
Монтаж: Даниэлиус Коканаускис
В ролях: Василина Маковцева, Валериу Андрюцэ, Сергей Колесов, Дмитрий Быковский, Лия Ахеджакова, Алиса Кравцова, Константин Итунин, Николай Коляда, Сергей Федоров, Александр Замураев

Бюджет: €2 000 000
Сборы в России: $6 837

Мировая премьера: 25 мая 2017
Премьера (РФ): 23 ноября 2017, «GP Group»

Описание: По мотивам одноименного рассказа Ф. М. Достоевского. Действие происходит в наши дни. Женщине на почте возвращают посылку, посланную ею некоторое время назад мужу, отбывающему срок за преступление, которого он не совершал. Несчастная женщина, глубоко расстроенная, решает ехать к мужу, чтобы узнать, что случилось. Так начинается рассказ о путешествии, история абсурдной битвы против системы...
Качество исходника: Blu-Ray (NNMClub)
Качество: BDRip
Тип: HD (1080p)
Контейнер: M4V
Видео: H.264, 1920x720, 2.667, 8 000 Kbps, 23.976 fps

Аудио 1: Русский/Оригинальная дорожка , AAC / 2.0 / 160 Kbps / 48.0 KHz
Аудио 2: Русский/Оригинальная дорожка , AC-3 / 5.1 / 640 Kbps / 48.0 KHz
Sort Name: Gentle Creature
XID: Apple:vendor_id:2017-1007433
contentID: 1322008973
Copyright: © 2017 Slot Machine
Screenwriters: Сергей Лозница
Producers: Марианна Слот, Мария Бэйкер, Гуннар Деди
Director: Сергей Лозница
Cast: Василина Маковцева, Валериу Андрюцэ, Сергей Колесов, Дмитрий Быковский, Лия Ахеджакова, Алиса Кравцова, Константин Итунин, Николай Коляда, Сергей Федоров, Александр Замураев
Studio: Slot Machine
Rating: 81
Long Description: Молодая женщина по пути на свидание к арестованному мужу встречает различных героев своего времени: от полицейских и правозащитников до проституток и бродяг.
Description: Молодая женщина по пути на свидание к арестованному мужу встречает различных героев своего времени: от полицейских и правозащитников до проституток и бродяг.
Release Date: 2017-05-25T08:00:00Z
Genre: Drama
Artist: Sergei Loznitsa
Name: A Gentle Creature
General
Complete name                            : /Users/imac/HandBrake/Krotkaya (1080p HD).m4v
Format                                   : MPEG-4
Codec ID                                 : M4V  (M4V /M4A /mp42/isom)
File size                                : 8.78 GiB
Duration                                 : 2h 22mn
Overall bit rate mode                    : Variable
Overall bit rate                         : 8 800 Kbps
Movie name                               : A Gentle Creature
Performer                                : Sergei Loznitsa
Director                                 : Сергей Лозница
Actor                                    : Василина Маковцева / Валериу Андрюцэ / Сергей Колесов / Дмитрий Быковский / Лия Ахеджакова / Алиса Кравцова / Константин Итунин / Николай Коляда / Сергей Федоров / Александр Замураев
Screenplay by                            : Сергей Лозница
Producer                                 : Марианна Слот / Мария Бэйкер / Гуннар Деди
Production studio                        : Slot Machine
Genre                                    : Drama
ContentType                              : Short Film
Description                              : Молодая женщина по пути на свидание к арестованному мужу встречает различных героев своего времени: от полицейских и правозащитников до проституток и бродяг.
Recorded date                            : UTC 2017-05-25 08:00:00
Encoded date                             : UTC 2018-05-27 09:59:09
Tagged date                              : UTC 2018-05-27 10:02:54
Copyright                                : © 2017 Slot Machine
Cover                                    : Yes
Rating                                   : None
Title/Sort                               : Gentle Creature
LongDescription                          : Молодая женщина по пути на свидание к арестованному мужу встречает различных героев своего времени: от полицейских и правозащитников до проституток и бродяг.
AppleStoreCatalogID                      : 1322008973
Vendor                                   : Apple:vendor_id:2017-1007433
ContentRating                            : nl-movie|16|500|

Video #1
ID                                       : 1
Format                                   : AVC
Format/Info                              : Advanced Video Codec
Format profile                           : [email protected]
Format settings                          : CABAC / 4 Ref Frames
Format settings, CABAC                   : Yes
Format settings, ReFrames                : 4 frames
Codec ID                                 : avc1
Codec ID/Info                            : Advanced Video Coding
Duration                                 : 2h 22mn
Source duration                          : 2h 22mn
Bit rate                                 : 8 000 Kbps
Width                                    : 1 920 pixels
Height                                   : 720 pixels
Display aspect ratio                     : 2.667
Frame rate mode                          : Variable
Frame rate                               : 23.976 fps
Minimum frame rate                       : 23.810 fps
Maximum frame rate                       : 23.981 fps
Color space                              : YUV
Chroma subsampling                       : 4:2:0
Bit depth                                : 8 bits
Scan type                                : Progressive
Bits/(Pixel*Frame)                       : 0.241
Stream size                              : 7.98 GiB (91%)
Source stream size                       : 7.98 GiB (91%)
Title                                    : Main Program
Writing library                          : x264 core 155 r2893 b00bcaf
Encoding settings                        : cabac=1 / ref=4 / deblock=1:-2:-2 / analyse=0x3:0x133 / me=umh / subme=10 / psy=1 / psy_rd=1.00:0.15 / mixed_ref=1 / me_range=32 / chroma_me=1 / trellis=2 / 8x8dct=1 / cqm=0 / deadzone=21,11 / fast_pskip=1 / chroma_qp_offset=-3 / threads=22 / lookahead_threads=5 / sliced_threads=0 / nr=0 / decimate=0 / interlaced=0 / bluray_compat=0 / constrained_intra=0 / bframes=16 / b_pyramid=2 / b_adapt=2 / b_bias=0 / direct=3 / weightb=1 / open_gop=0 / weightp=2 / keyint=240 / keyint_min=24 / scenecut=40 / intra_refresh=0 / rc_lookahead=40 / rc=2pass / mbtree=1 / bitrate=8000 / ratetol=1.0 / qcomp=0.70 / qpmin=0 / qpmax=69 / qpstep=4 / cplxblur=20.0 / qblur=0.5 / ip_ratio=1.40 / aq=1:1.00
Language                                 : French
Encoded date                             : UTC 2018-05-27 09:59:10
Tagged date                              : UTC 2018-05-27 09:59:34
Color range                              : Limited
Color primaries                          : BT.709
Transfer characteristics                 : BT.709
Matrix coefficients                      : BT.709
Menus                                    : 4,5

Video #2
ID                                       : 5
Format                                   : JPEG
Codec ID                                 : jpeg
Duration                                 : 2h 22mn
Bit rate mode                            : Variable
Bit rate                                 : 196 bps
Width                                    : 640 pixels
Height                                   : 240 pixels
Display aspect ratio                     : 2.667
Frame rate mode                          : Constant
Frame rate                               : 0.000 fps
Color space                              : YUV
Chroma subsampling                       : 4:2:0
Bit depth                                : 8 bits
Compression mode                         : Lossy
Stream size                              : 205 KiB (0%)
Title                                    : Chapter Images
Language                                 : French
Default                                  : No
Encoded date                             : UTC 2018-05-27 09:59:43
Tagged date                              : UTC 2018-05-27 09:59:43
Menu For                                 : 1
ColorSpace_ICC                           : RGB

Audio #1
ID                                       : 2
Format                                   : AAC
Format/Info                              : Advanced Audio Codec
Format profile                           : LC
Codec ID                                 : mp4a-40-2
Duration                                 : 2h 22mn
Source duration                          : 2h 22mn
Bit rate mode                            : Variable
Bit rate                                 : 157 Kbps
Maximum bit rate                         : 257 Kbps
Channel(s)                               : 2 channels
Channel positions                        : Front: L R
Sampling rate                            : 48.0 KHz
Frame rate                               : 46.875 fps (1024 SPF)
Compression mode                         : Lossy
Stream size                              : 161 MiB (2%)
Source stream size                       : 161 MiB (2%)
Title                                    : Russian Stereo
Language                                 : Russian
Default                                  : Yes
Alternate group                          : 1
Encoded date                             : UTC 2018-05-27 09:59:10
Tagged date                              : UTC 2018-05-27 09:59:39
Fallback From                            : 3

Audio #2
ID                                       : 3
Format                                   : AC-3
Format/Info                              : Audio Coding 3
Codec ID                                 : ac-3
Duration                                 : 2h 22mn
Bit rate mode                            : Constant
Bit rate                                 : 640 Kbps
Channel(s)                               : 6 channels
Channel positions                        : Front: L C R, Side: L R, LFE
Sampling rate                            : 48.0 KHz
Frame rate                               : 31.250 fps (1536 SPF)
Bit depth                                : 16 bits
Compression mode                         : Lossy
Stream size                              : 654 MiB (7%)
Title                                    : Russian DD 5.1
Language                                 : Russian
Service kind                             : Complete Main
Default                                  : Inherited From: 2
Alternate group                          : 1
Encoded date                             : UTC 2018-05-27 09:59:10
Tagged date                              : UTC 2018-05-27 09:59:22
Fallback To                              : 2

Menu #1
00:00:00.000                             : Chapter 1
00:13:31.646                             : Chapter 2
00:33:12.371                             : Chapter 3
00:46:57.531                             : Chapter 4
01:01:41.959                             : Chapter 5
01:41:51.916                             : Chapter 6

Menu #2
ID                                       : 4
Codec ID                                 : text
Duration                                 : 2h 22mn
Language                                 : French
Encoded date                             : UTC 2018-05-27 09:59:39
Tagged date                              : UTC 2018-05-27 09:59:39
Bit rate mode                            : CBR
Menu For                                 : 1
00:00:00.000                             : Chapter 1
00:13:31.646                             : Chapter 2
00:33:12.371                             : Chapter 3
00:46:57.531                             : Chapter 4
01:01:41.959                             : Chapter 5
01:41:51.916                             : Chapter 6
x264 [info]: frame I:909   Avg QP:13.33  size:256904
x264 [info]: frame P:48540 Avg QP:16.45  size: 83556
x264 [info]: frame B:156046 Avg QP:17.98  size: 27414
x264 [info]: consecutive B-frames:  1.5%  3.0%  8.1% 42.0% 18.5% 19.7%  4.1%  1.5%  0.6%  0.2%  0.1%  0.0%  0.1%  0.0%  0.0%  0.1%  0.4%
x264 [info]: mb I  I16..4: 18.9% 56.9% 24.2%
x264 [info]: mb P  I16..4:  1.6%  9.0%  1.6%  P16..4: 36.8% 23.5% 17.5%  1.3%  0.7%    skip: 8.0%
x264 [info]: mb B  I16..4:  0.2%  1.0%  0.2%  B16..8: 36.4% 10.9%  3.0%  direct: 8.9%  skip:39.4%  L0:40.8% L1:40.3% BI:18.9%
x264 [info]: 8x8 transform intra:71.8% inter:40.2%
x264 [info]: direct mvs  spatial:99.3% temporal:0.7%
x264 [info]: coded y,uvDC,uvAC intra: 95.7% 90.7% 74.9% inter: 32.8% 26.6% 15.0%
x264 [info]: i16 v,h,dc,p:  8%  6% 34% 52%
x264 [info]: i8 v,h,dc,ddl,ddr,vr,hd,vl,hu: 10% 10% 10%  9% 13% 12% 13% 11% 13%
x264 [info]: i4 v,h,dc,ddl,ddr,vr,hd,vl,hu: 10%  9%  5%  9% 15% 13% 15% 11% 14%
x264 [info]: i8c dc,h,v,p: 47% 17% 17% 18%
x264 [info]: Weighted P-Frames: Y:2.3% UV:1.0%
x264 [info]: ref P L0: 48.7%  9.7% 29.5% 11.6%  0.4%  0.0%
x264 [info]: ref B L0: 81.8% 14.9%  3.3%
x264 [info]: ref B L1: 94.8%  5.2%
x264 [info]: kb/s:7996.49

Релиз подготовлен для просмотра на Apple TV, iPad, iPhone, iPod Touch.
Для просмотра данного релиза на компьютере с ОС Windows рекомендуется использовать VLC media player

Трекер:  [ 27-Май-2018 14:06 ]

  

Скачать .torrent

Размер .torrent файла 88 KB


Размер: 8.78 GB
Хэш (hash) релиза: 5190bb975ddc1a972cb7ed96f3afeea3e6c3c50b

Еще никто не оставлял запись к записи скачать торрент [ATV3] Кроткая . Будь первым!

!Обратная связь