Hardwaretalk | Armand V by Dag Solstad (.ePUB)(.AZW3) | Munir Zamir

Скачать через торрент [DOC] Как делают спортинвентарь? How sports are made? бесплатно русская версия torrent активатор

Статистика раздачи
Размер:  656 MB   |    Зарегистрирован:  28 дней   |    .torrent скачан:  14 раз   |   
Раздают:  1  
   
загрузка...
 
Автор Сообщение

Galfimbul

avatar Galfimbul


Как делают спортинвентарь?
How sports are made?

Год выпуска: 2001-2013
Жанр: Научно-популярный
Продолжительность: ~00:22:00 х 8
Перевод: Профессиональный (одноголосый)
Режиссер: Discovery Channel
Описание: Вам интересно, как делают спортинвентарь? Discovery Channel представляет нарезку сериала "Как это работает", в которой приглашает зрителей за кулисы производства исключительно спортивного инвентаря.
За исходник спасибо camel
и
Качество: TVRip
Формат: MP4
Видео кодек: XviD
Аудио кодек: AAC
Видео: 480x264, 450 kbps, 25.000 fps
Аудио: Русский, 1 ch, 48 kHz, 64 kbps
001 S01E01 (Велосипедная рама из углеволокна, Алюминиевые колеса, Кожаные седла, Велосипедные цепи)
002 S01E02 (Лодки для спортивной гребли, Паруса, Мачты из углеродного волокна, Доски для виндсерфинга)
003 S01E03 (Копье для метания, Рулетка, Шесты, Кроссовки на заказ)
004 S01E04 (Лыжные ботинки, Горные лыжи, Лыжные и походные палки, Горнолыжные очки)
005 S01E05 (Гоночные инвалидные кресла, Английские седла, Кевларовые каноэ, Весла для каноэ)
006 S01E06 (Профессиональные хоккейные клюшки, Хоккейные перчатки, Ледовые площадки, Коньки с подогревом)
007 S01E07 (Сноуборды, Снаряды для керлинга, Хоккейные шайбы, Беговые коньки)
008 S01E08 (Традиционные луки, Искусственное травяное покрытие, Ростовые куклы, Эллиптические тренажеры)
General
Complete name : [DOC] How.sports.are.made.TVRip.XviD.480x(semen_52-TNC)\001 S01E01 (Велосипедная рама из углеволокна, Алюминиевые колеса, Кожаные седла, Велосипедные цепи).mp4
Format : MPEG-4
Format profile : Base Media
Codec ID : isom
File size : 81.0 MiB
Duration : 21mn 49s
Overall bit rate mode : Variable
Overall bit rate : 519 Kbps
Part/Position : 1
Track name/Position : 1
Encoded date : UTC 2014-03-28 18:38:41
Tagged date : UTC 2014-03-28 18:38:45
Writing application : MkvToMp4 version: 0.224 (x64)
Comment : Rip by semen_52-TNC
tvsh : 001
tvsn : 1
tves : 1
sosn : 001
stik : 9

Video
ID : 1
Format : MPEG-4 Visual
Format profile : Advanced [email protected]
Format settings, BVOP : No
Format settings, QPel : Yes
Format settings, GMC : No warppoints
Format settings, Matrix : Default (H.263)
Codec ID : 20
Duration : 21mn 49s
Bit rate mode : Variable
Bit rate : 450 Kbps
Maximum bit rate : 1 704 Kbps
Width : 480 pixels
Height : 264 pixels
Display aspect ratio : 16:9
Frame rate mode : Constant
Frame rate : 25.000 fps
Color space : YUV
Chroma subsampling : 4:2:0
Bit depth : 8 bits
Scan type : Progressive
Compression mode : Lossy
Bits/(Pixel*Frame) : 0.142
Stream size : 70.2 MiB (87%)
Writing library : XviD 73
Language : English
Tagged date : UTC 2014-03-28 18:38:42

Audio
ID : 2
Format : AAC
Format/Info : Advanced Audio Codec
Format profile : LC
Codec ID : 40
Duration : 21mn 49s
Bit rate mode : Variable
Bit rate : 64.0 Kbps
Maximum bit rate : 68.2 Kbps
Channel(s) : 1 channel
Channel positions : Front: C
Sampling rate : 48.0 KHz
Compression mode : Lossy
Stream size : 9.99 MiB (12%)
Language : Russian
Encoded date : UTC 2014-03-28 18:38:41
Tagged date : UTC 2014-03-28 18:38:42
За помощь с постером особая благодарность badin-bad

Трекер:  [ 27-Май-2018 13:36 ]

  

Скачать .torrent

Размер .torrent файла 14 KB


Размер: 656 MB
Хэш (hash) релиза: b592de5244f344a785acbacf6ca7449b89646934

Еще никто не оставлял запись к записи скачать торрент [DOC] Как делают спортинвентарь? How sports are made? . Будь первым!

!Обратная связь