Watch movie | Time Squad (2001-) | Watch Movie

Скачать через торрент [VIDEO] Побеждая время Hours бесплатно русская версия torrent активатор

Статистика раздачи
Размер:  705 MB   |    Зарегистрирован:  28 дней   |    .torrent скачан:  11 раз   |   
Раздают:  1  
   
загрузка...
 
Автор Сообщение

Galfimbul

avatar Galfimbul


Побеждая время
Hours

Год выпуска: 2013
Страна: США (Hours Capital, Palm-Star Entertainment, Safran Company, The)
Жанр: Триллер, драма
Продолжительность: 01:37:04
Перевод: Профессиональный (многоголосый закадровый) [Лицензия]
Оригинальная дорожка: Нет
Субтитры: Нет
Режиссер: Эрик Хайссерер / Eric Heisserer
В ролях: Пол Уокер, Дженезис Родригез, Нэнси Нейв, Шэйн Якобсен, Наталия Ярожик, Тиджей Хассан, Лена Кларк, Кеша Баллард, Йоханс Майлс, Джудд Лорманд
Описание: Новый Орлеан. Август 2005-го. Смертоносная «Катрина» сметает все на своем пути. Отец изо всех сил пытается спасти свою дочь. Он понимает, что справиться со стихией, остановить беспощадный ураган не в его силах. На спасение дочери остаются считаные часы…

Качество: HDRip (Рип с BDRip 1080p)
Формат: MP4
Видео кодек: H.264
Аудио кодек: AAC
Видео: 960x400 (2.40:1), 881 kbps, 23.976 fps
Аудио: Русский, 2 ch, 48 kHz, 128 kbps [Dub]
Съёмки картины проходили в марте 2013 года в Новом Орлеане.
<div class="sp-wrap">
<div class="sp-head folded">Log</div>
<div class="sp-body">x264 [info]: frame I:943 Avg QP:15.10 size: 46998
x264 [info]: frame P:28578 Avg QP:18.04 size: 10466
x264 [info]: frame B:110014 Avg QP:19.44 size: 2702

x264 [total]: encoded 139535 frames, 23.66 fps, 880.65 kb/s
General
Complete name : [VIDEO] Pobejdaya.vremya.2013.HDRip.x264.960x(semen_52-TNC).mp4
Format : MPEG-4
Format profile : Base Media
Codec ID : isom
File size : 705 MiB
Duration : 1h 37mn
Overall bit rate mode : Variable
Overall bit rate : 1 015 Kbps
Movie name : [VIDEO] Pobejdaya vremya 2013 HDRip x264 960x(semen_52-TNC)
Encoded date : UTC 2014-08-19 19:50:21
Tagged date : UTC 2014-08-19 19:53:53
Writing application : MkvToMp4 version: 0.224 (x64)
Comment : Rip by semen_52-TNC
hdvd : 0
stik : 9

Video
ID : 1
Format : AVC
Format/Info : Advanced Video Codec
Format profile : [email protected]
Format settings, CABAC : Yes
Format settings, ReFrames : 8 frames
Codec ID : avc1
Codec ID/Info : Advanced Video Coding
Duration : 1h 36mn
Bit rate : 881 Kbps
Maximum bit rate : 4 477 Kbps
Width : 960 pixels
Height : 400 pixels
Display aspect ratio : 2.40:1
Frame rate mode : Constant
Frame rate : 23.976 fps
Color space : YUV
Chroma subsampling : 4:2:0
Bit depth : 8 bits
Scan type : Progressive
Bits/(Pixel*Frame) : 0.096
Stream size : 611 MiB (87%)
Writing library : x264 core 130 r2273 b3065e6
Encoding settings : cabac=1 / ref=8 / deblock=1:-3:-3 / analyse=0x3:0x113 / me=umh / subme=9 / psy=1 / psy_rd=1.00:0.15 / mixed_ref=1 / me_range=24 / chroma_me=1 / trellis=2 / 8x8dct=1 / cqm=0 / deadzone=21,11 / fast_pskip=0 / chroma_qp_offset=-3 / threads=9 / lookahead_threads=1 / sliced_threads=0 / nr=0 / decimate=1 / interlaced=0 / bluray_compat=0 / constrained_intra=0 / bframes=5 / b_pyramid=2 / b_adapt=2 / b_bias=0 / direct=1 / weightb=1 / open_gop=0 / weightp=2 / keyint=250 / keyint_min=23 / scenecut=40 / intra_refresh=0 / rc_lookahead=60 / rc=crf / mbtree=1 / crf=19.0 / qcomp=0.60 / qpmin=0 / qpmax=69 / qpstep=4 / ip_ratio=1.40 / aq=1:1.00
Language : English
Encoded date : UTC 2014-08-19 19:50:21
Tagged date : UTC 2014-08-19 19:51:02

Audio
ID : 2
Format : AAC
Format/Info : Advanced Audio Codec
Format profile : LC
Codec ID : 40
Duration : 1h 37mn
Bit rate mode : Variable
Bit rate : 128 Kbps
Maximum bit rate : 174 Kbps
Channel(s) : 2 channels
Channel positions : Front: L R
Sampling rate : 48.0 KHz
Compression mode : Lossy
Stream size : 88.7 MiB (13%)
Title : MVO
Language : Russian
Encoded date : UTC 2014-08-19 19:50:34
Tagged date : UTC 2014-08-19 19:51:02</div>
</div>

Трекер:  [ 27-Май-2018 13:06 ]

  

Скачать .torrent

Размер .torrent файла 14 KB


Размер: 705 MB
Хэш (hash) релиза: edfb54cf9a77d98419ddd7bdaa50ef6a0a6b349a

Еще никто не оставлял запись к записи скачать торрент [VIDEO] Побеждая время Hours . Будь первым!

!Обратная связь