One Piece Chapter 737: | Watch Movie | Biographische Filme

Скачать через торрент [VIDEO] Кабинетный гарнитур Сослуживцы бесплатно русская версия torrent активатор

Статистика раздачи
Размер:  784 MB   |    Зарегистрирован:  28 дней   |    .torrent скачан:  10 раз   |   
Раздают:  1  
   
загрузка...
 
Автор Сообщение

Galfimbul

avatar Galfimbul


Кабинетный гарнитур / Сослуживцы
Desk Set

Год выпуска: 1957
Страна: США (20th Century Fox Film Corporation)
Жанр: Комедия, мелодрама
Продолжительность: 01:43:33
Перевод: Профессиональный (многоголосый, закадровый) [1-ый Канал]
Оригинальная дорожка: Есть
Субтитры: Русские, полные, вшитые
Режиссер: Уолтер Лэнг / Walter Lang
В ролях: Спенсер Трэйси, Кэтрин Хепберн, Гиг Янг, Джоан Блонделл, Дина Мэрилл, Сью Рэндолл, Нева Паттерсон, Гарри Эллерб, Николас Джой, Дайан Йоргенс
Описание: Ричард Самнер - специалист в области повышения производительности труда. Банни Уотсон возглавляет небольшой отдел в телекомпании. Ее сотрудницы вполне квалифицированно могут дать ответы на самые разные вопросы, опираясь на собственную память. Но тут появляется Самнер с изобретенной им машиной «Эмерак», ласково называемой «Эмми», и говорит: «Вот электронный мозг, способный дать ответ на любой запрос!»
Банни и ее коллеги, разумеется, встречают в штыки этакое рацпредложение, угрожающее их существованию. У Ричарда же есть два аргумента в пользу своего сотрудничества с отделом миссиc Уотсон: первый - «Эмми» будет помогать в работе, никого не подменяя, а второй - Банни покорила сердце Самнера, и он надеется на взаимность… А вот дружок Банни Майк подавлен тем, что у его пассии, похоже, намечается с Самнером роман. В офисе страсти разгораются все сильнее, и все смешнее становится эта комедия, классическая и романтическая...

Качество: HDRip (Рип с BDRip 720p)
Формат: MP4
Видео кодек: H.264
Аудио кодек: AAC
Видео: 640x272 (2.35:1), 790 kbps, 23.976 fps
Аудио 1: Русский, 1 ch, 48 kHz, 128 kbps [MVO, Первый канал]
Аудио 3: Английский, 2 ch, 48 kHz, 128 kbps [Original]
<div class="sp-wrap">
<div class="sp-head folded">Log</div>
<div class="sp-body">x264 [info]: frame I:740 Avg QP:15.16 size: 47799
x264 [info]: frame P:44004 Avg QP:18.16 size: 9760
x264 [info]: frame B:104223 Avg QP:23.31 size: 1426

x264 [total]: encoded 148967 frames, 53.04 fps, 789.88 kb/s
General
Complete name : [VIDEO] Desk.Set.1957.HDRip.x264.640x(semen_52-TNC).mp4
Format : MPEG-4
Format profile : Base Media
Codec ID : isom
File size : 784 MiB
Duration : 1h 43mn
Overall bit rate mode : Variable
Overall bit rate : 1 058 Kbps
Encoded date : UTC 2014-08-17 07:50:47
Tagged date : UTC 2014-08-17 07:52:44
Writing application : MkvToMp4 version: 0.224 (x64)
Comment : Rip by semen_52-TNC
stik : 9

Video
ID : 1
Format : AVC
Format/Info : Advanced Video Codec
Format profile : [email protected]
Format settings, CABAC : Yes
Format settings, ReFrames : 8 frames
Codec ID : avc1
Codec ID/Info : Advanced Video Coding
Duration : 1h 43mn
Bit rate : 790 Kbps
Maximum bit rate : 2 182 Kbps
Width : 640 pixels
Height : 272 pixels
Display aspect ratio : 2.35:1
Frame rate mode : Constant
Frame rate : 23.976 fps
Color space : YUV
Chroma subsampling : 4:2:0
Bit depth : 8 bits
Scan type : Progressive
Bits/(Pixel*Frame) : 0.189
Stream size : 585 MiB (75%)
Writing library : x264 core 130 r2273 b3065e6
Encoding settings : cabac=1 / ref=8 / deblock=1:-3:-3 / analyse=0x3:0x113 / me=umh / subme=9 / psy=1 / psy_rd=1.00:0.15 / mixed_ref=1 / me_range=24 / chroma_me=1 / trellis=2 / 8x8dct=1 / cqm=0 / deadzone=21,11 / fast_pskip=0 / chroma_qp_offset=-2 / threads=6 / lookahead_threads=4 / sliced_threads=0 / nr=0 / decimate=1 / interlaced=0 / bluray_compat=0 / constrained_intra=0 / bframes=3 / b_pyramid=2 / b_adapt=2 / b_bias=0 / direct=1 / weightb=1 / open_gop=0 / weightp=2 / keyint=250 / keyint_min=25 / scenecut=40 / intra_refresh=0 / rc_lookahead=60 / rc=crf / mbtree=1 / crf=18.3 / qcomp=0.60 / qpmin=0 / qpmax=69 / qpstep=4 / ip_ratio=1.40 / aq=2:1.00
Language : English
Encoded date : UTC 2014-08-17 07:50:47
Tagged date : UTC 2014-08-17 07:51:10

Audio #1
ID : 2
Format : AAC
Format/Info : Advanced Audio Codec
Format profile : LC
Codec ID : 40
Duration : 1h 43mn
Bit rate mode : Variable
Bit rate : 128 Kbps
Maximum bit rate : 136 Kbps
Channel(s) : 1 channel
Channel positions : Front: C
Sampling rate : 48.0 KHz
Compression mode : Lossy
Stream size : 94.8 MiB (12%)
Title : MVO 1st Channel
Language : Russian
Encoded date : UTC 2014-08-17 07:50:59
Tagged date : UTC 2014-08-17 07:51:10

Audio #2
ID : 3
Format : AAC
Format/Info : Advanced Audio Codec
Format profile : LC
Codec ID : 40
Duration : 1h 43mn
Bit rate mode : Variable
Bit rate : 128 Kbps
Maximum bit rate : 150 Kbps
Channel(s) : 2 channels
Channel positions : Front: L R
Sampling rate : 48.0 KHz
Compression mode : Lossy
Stream size : 94.8 MiB (12%)
Title : Original
Language : English
Encoded date : UTC 2014-08-17 07:51:04
Tagged date : UTC 2014-08-17 07:51:10

Text
ID : 4
Format : Timed text
Muxing mode : sbtl
Codec ID : tx3g
Duration : 1h 43mn
Bit rate mode : Variable
Bit rate : 134 bps
Stream size : 101 KiB (0%)
Title : Full
Language : Russian
Encoded date : UTC 2014-08-17 07:51:10
Tagged date : UTC 2014-08-17 07:51:10</div>
</div>

Трекер:  [ 27-Май-2018 13:06 ]

  

Скачать .torrent

Размер .torrent файла 15 KB


Размер: 784 MB
Хэш (hash) релиза: f2acd75f8b8fc921d5ccb72718e5a4c0e56700f6

Еще никто не оставлял запись к записи скачать торрент [VIDEO] Кабинетный гарнитур Сослуживцы . Будь первым!

!Обратная связь