Shades of Blue | Giai Điệu Của Lời Nguyền White The Melody Of The Curse 106 phút HD | Season 4 Episode 14 The Thespian Catalyst

Скачать через торрент [VIDEO] Почему мне никто не верит? Pourquoi personne me croit? бесплатно русская версия torrent активатор

Статистика раздачи
Размер:  468 MB   |    Зарегистрирован:  28 дней   |    .torrent скачан:  11 раз   |   
Раздают:  1  
   
загрузка...
 
Автор Сообщение

Galfimbul

avatar Galfimbul


Почему мне никто не верит?
Pourquoi personne me croit?

Год выпуска: 2013
Страна: Франция (Alchimic Films, France Télévisions, TV5 Monde)
Жанр: Детектив
Продолжительность: 01:48:47
Перевод: Одноголосый закадровый
Оригинальная дорожка: Нет
Субтитры: Русские, неотключаемые (хардсаб)
Режиссер: Жак Фанстен / Jacques Fansten
В ролях: Батист Флериаль / Batyste Fleurial (Sébastien), Брюно Волкович / Bruno Wolkowitch (Ligier), Каролин Пруст / Caroline Proust (Jeanne), Бузид Беркай / Bouzid Berkai (Kévin), Люсиль Жоли / Lucille Joly (Malia)
Описание: 13-летний Себастьен становится невольным свидетелем убийства отца и вынужден скрываться от полиции, обвиняющей его в этом преступлении, т.к. на дробовике, из которого был произведен роковой выстрел, обнаружили его отпечатки пальцев. Вместе со своим другом и сводной сестрой они пытаются раскрыть правду…

Качество: SATRip (Рип с DVB)
Формат: MP4
Видео кодек: XviD
Аудио кодек: AAC
Видео: 480х264 (16:9), 500 kbps, 25.000 fps
Аудио: Русский, 2 ch, 48 kHz, 96 kbps [VO]
General
Complete name : G:\!!!RG\VIDEO\[VIDEO] Pourquo.personne.me.croit.SATRip.XviD.480x(semen_52-TNC).mp4
Format : MPEG-4
Format profile : Base Media / Version 2
Codec ID : mp42
File size : 468 MiB
Duration : 1h 48mn
Overall bit rate mode : Variable
Overall bit rate : 601 Kbps
Movie name : [VIDEO] Pourquo personne me croit SATRip XviD 480x(semen_52-TNC)
ContentType : Short Film
Encoded date : UTC 2014-10-01 22:27:21
Tagged date : UTC 2014-10-02 13:03:12
Writing application : MkvToMp4 version: 0.224 (x64)
Comment : Rip by semen_52-TNC

Video
ID : 201
Format : MPEG-4 Visual
Format profile : Advanced [email protected]
Format settings, BVOP : No
Format settings, QPel : No
Format settings, GMC : No warppoints
Format settings, Matrix : Default (H.263)
Codec ID : 20
Duration : 1h 48mn
Bit rate mode : Variable
Bit rate : 500 Kbps
Maximum bit rate : 1 945 Kbps
Width : 480 pixels
Height : 264 pixels
Display aspect ratio : 16:9
Frame rate mode : Constant
Frame rate : 25.000 fps
Color space : YUV
Chroma subsampling : 4:2:0
Bit depth : 8 bits
Scan type : Progressive
Compression mode : Lossy
Bits/(Pixel*Frame) : 0.158
Stream size : 389 MiB (83%)
Writing library : XviD 73
Encoded date : UTC 2014-10-01 22:27:21
Tagged date : UTC 2014-10-01 22:27:37

Audio
ID : 101
Format : AAC
Format/Info : Advanced Audio Codec
Format profile : LC
Codec ID : 40
Duration : 1h 48mn
Bit rate mode : Variable
Bit rate : 96.0 Kbps
Maximum bit rate : 104 Kbps
Channel(s) : 2 channels
Channel positions : Front: L R
Sampling rate : 48.0 KHz
Compression mode : Lossy
Stream size : 74.7 MiB (16%)
Encoded date : UTC 2014-10-01 22:27:34
Tagged date : UTC 2014-10-01 22:27:37


Трекер:  [ 27-Май-2018 13:06 ]

  

Скачать .torrent

Размер .torrent файла 18 KB


Размер: 468 MB
Хэш (hash) релиза: 52786a1759000f93b30b148444c0a567130c5d1a

Еще никто не оставлял запись к записи скачать торрент [VIDEO] Почему мне никто не верит? Pourquoi personne me croit? . Будь первым!

!Обратная связь